<?xml version="1.0" standalone="no"?>
<!DOCTYPE svg PUBLIC "-//W3C//DTD SVG 1.1//EN" "http://www.w3.org/Graphics/SVG/1.1/DTD/svg11.dtd" >
<svg xmlns="http://www.w3.org/2000/svg">
<metadata>Generated by IcoMoon</metadata>
<defs>
<font id="fwdicon" horiz-adv-x="1024">
<font-face units-per-em="1024" ascent="960" descent="-64" />
<missing-glyph horiz-adv-x="1024" />
<glyph unicode="&#x20;" horiz-adv-x="512" d="" />
<glyph unicode="&#xe900;" glyph-name="calendar" d="M648.107 567.723h185.344v-490.325h-641.876v491.349h456.532v-1.024zM339.968 528.981h-109.653v-111.787h111.787v109.653h-2.133v2.133zM490.496 528.981h-109.653v-111.787h111.787v109.653h-2.133v2.133zM642.048 528.981h-109.653v-111.787h111.787v109.653h-2.133v2.133zM793.685 528.981h-110.763v-111.787h110.763v111.787zM342.101 377.429h-111.787v-111.787h111.787v111.787zM492.629 377.429h-111.787v-111.787h111.787v111.787zM644.181 377.429h-111.787v-110.763h111.787v110.763zM794.709 377.429h-111.787v-110.763h111.787v110.763zM342.101 226.901h-111.787v-110.763h111.787v110.763zM492.629 226.901h-111.787v-110.763h111.787v110.763zM644.181 226.901h-111.787v-110.763h111.787v110.763zM794.709 226.901h-111.787v-110.763h111.787v110.763zM173.142 933.376c0 12.071 9.22 20.395 20.395 20.395h116.735c12.070 0 20.395-9.221 20.395-20.395v-47.189h361.643v47.189c0 12.071 9.22 20.395 20.395 20.395h116.736c12.070 0 20.395-9.221 20.395-20.395v-47.189h114.773c11.055 0 19.42-8.225 20.395-19.462v-905.125c0-12.070-9.22-20.395-20.395-20.395h-904.191c-12.071 0-20.395 9.22-20.395 20.395v904.192c0 11.242 8.388 20.395 19.371 20.395h113.749v47.189zM291.925 914.005h-77.995v-92.245h2.133v-2.133h75.861v94.379zM811.093 914.005h-77.995v-94.379h77.995v94.379zM174.166 847.445h-94.379v-145.578h867.498v145.578h-94.379v-47.189c0-12.070-9.22-20.395-20.395-20.395h-117.76c-12.070 0-20.395 9.22-20.395 20.395v47.189h-362.667v-47.189c0-12.070-9.22-20.395-20.395-20.395h-116.735c-11.174 0-20.395 8.324-20.395 20.395v47.189zM943.104 663.125h-863.316v-680.107h865.45v677.973h-2.133v2.133z" />
<glyph unicode="&#xe901;" glyph-name="cast" d="M59.392 129.536c-26.624 0-49.152-21.504-49.152-49.152s21.504-49.152 49.152-49.152c26.624 0 49.152 21.504 49.152 49.152s-22.528 49.152-49.152 49.152zM41.984 515.584c-11.264 0-20.48-9.216-20.48-20.48s9.216-20.48 20.48-20.48c223.232 0 403.456-181.248 403.456-403.456 0-11.264 9.216-20.48 20.48-20.48s20.48 9.216 20.48 20.48c1.024 244.736-198.656 444.416-444.416 444.416zM41.984 373.248c-11.264 0-20.48-9.216-20.48-20.48s9.216-20.48 20.48-20.48c144.384 0 262.144-117.76 262.144-262.144 0-11.264 9.216-20.48 20.48-20.48s20.48 9.216 20.48 20.48c0 166.912-136.192 303.104-303.104 303.104zM41.984 236.032c-11.264 0-20.48-9.216-20.48-20.48s9.216-20.48 20.48-20.48c68.608 0 124.928-56.32 124.928-124.928 0-11.264 9.216-20.48 20.48-20.48s20.48 9.216 20.48 20.48c0 91.136-74.752 165.888-165.888 165.888zM924.672 846.336h-821.248c-51.2 0-92.16-40.96-92.16-92.16v-151.552c0-11.264 9.216-20.48 20.48-20.48s20.48 9.216 20.48 20.48v151.552c0 28.672 22.528 51.2 51.2 51.2h821.248c28.672 0 51.2-22.528 51.2-51.2v-611.328c0-28.672-22.528-51.2-51.2-51.2h-353.28c-11.264 0-20.48-9.216-20.48-20.48s9.216-20.48 20.48-20.48h354.304c51.2 0 92.16 40.96 92.16 92.16v611.328c-1.024 50.176-41.984 92.16-93.184 92.16zM848.896 189.952h-279.552c-11.264 0-20.48-9.216-20.48-20.48s9.216-20.48 20.48-20.48h279.552c33.792 0 61.44 27.648 61.44 61.44v465.92c0 33.792-27.648 61.44-61.44 61.44h-672.768c-33.792 0-61.44-27.648-61.44-61.44v-80.896c0-11.264 9.216-20.48 20.48-20.48s20.48 9.216 20.48 20.48v80.896c0 11.264 9.216 20.48 20.48 20.48h673.792c11.264 0 20.48-9.216 20.48-20.48v-465.92c-1.024-11.264-10.24-20.48-21.504-20.48z" />
<glyph unicode="&#xe902;" glyph-name="cast-1" d="M21.333 773.818c0 39.418 32.34 71.757 71.758 71.757h837.819c39.418 0 71.757-32.34 71.757-71.757v-651.636c0-39.42-32.339-71.759-71.757-71.759h-304.486v50.426h325.82v694.302h-880.486v-139.636h-50.424v118.302zM21.333 468.834v50.475c255.070-10.771 458.114-213.815 468.883-468.885h-50.473c-10.667 227.396-191.014 407.746-418.411 418.411zM21.333 282.302v50.558c152.52-10.266 272.171-129.916 282.436-282.436h-50.558c-9.997 124.794-107.085 221.882-231.878 231.878zM21.333 50.423v95.209c49.599-8.35 86.859-45.609 95.208-95.209h-95.208z" />
<glyph unicode="&#xe903;" glyph-name="categories" d="M1013.762 559.616c-4.096 5.12-10.24 8.192-18.432 8.192h-43.008v237.568c0 18.432-14.336 32.768-32.768 32.768h-514.048l-40.96 68.608c-5.12 9.216-15.36 15.36-27.648 15.36h-232.449c-18.432 0-32.768-14.336-32.768-32.768v-321.536h-44.032c-6.144 0-13.312-3.072-18.432-8.192-5.12-6.144-7.168-12.288-5.12-19.456l82.944-547.84c2.048-12.288 12.288-20.48 23.552-20.48h801.793c11.264 0 21.504 8.192 23.552 20.48l82.944 547.84c2.048 7.168 0 14.336-5.12 19.456zM846.85 647.68v-78.848h-669.697v78.848h669.697zM138.241 686.592v-117.76h-29.696v315.392h222.209l40.96-68.608c5.12-9.216 15.36-15.36 27.648-15.36h513.024v-231.424h-28.672v117.76h-745.473zM978.946 528.896l-78.848-517.12h-776.193l-78.848 517.12h933.889z" />
<glyph unicode="&#xe904;" glyph-name="CC" d="M27.648 112.128h403.456c11.264 0 20.48 9.216 20.48 20.48v189.44c0 11.264-9.216 20.48-20.48 20.48h-185.344v396.288h184.32c11.264 0 20.48 9.216 20.48 20.48v174.080c0 11.264-9.216 20.48-20.48 20.48h-402.432c-11.264 0-20.48-9.216-20.48-20.48v-800.768c0-11.264 9.216-20.48 20.48-20.48zM48.128 912.896h362.496v-133.12h-185.344c-11.264 0-20.48-9.216-20.48-20.48v-437.248c0-11.264 9.216-20.48 20.48-20.48h184.32v-148.48h-361.472v759.808zM591.872 112.128h403.456c11.264 0 20.48 9.216 20.48 20.48v189.44c0 11.264-9.216 20.48-20.48 20.48h-184.32v396.288h184.32c11.264 0 20.48 9.216 20.48 20.48v174.080c0 11.264-9.216 20.48-20.48 20.48h-403.456c-11.264 0-20.48-9.216-20.48-20.48v-800.768c0-11.264 9.216-20.48 20.48-20.48zM612.352 912.896h362.496v-133.12h-184.32c-11.264 0-20.48-9.216-20.48-20.48v-437.248c0-11.264 9.216-20.48 20.48-20.48h184.32v-148.48h-362.496v759.808zM1004.544 2.56h-982.016c-11.264 0-20.48-9.216-20.48-20.48s9.216-20.48 20.48-20.48h982.016c11.264 0 20.48 9.216 20.48 20.48s-9.216 20.48-20.48 20.48z" />
<glyph unicode="&#xe905;" glyph-name="CC-1" d="M45.18 769.749c18.004 18.004 42.422 28.118 67.882 28.118h797.867c25.461 0 49.879-10.114 67.883-28.118s28.117-42.421 28.117-67.882v-507.733c0-25.461-10.114-49.879-28.117-67.883s-42.421-28.117-67.883-28.117h-797.867c-25.461 0-49.879 10.114-67.882 28.117s-28.118 42.421-28.118 67.883v507.733c0 25.461 10.114 49.879 28.118 67.882zM113.062 750.933c-13.013 0-25.494-5.169-34.695-14.372-9.202-9.201-14.371-21.681-14.371-34.694v-507.733c0-13.013 5.17-25.493 14.371-34.697 9.202-9.201 21.682-14.37 34.695-14.37h797.867c13.013 0 25.493 5.169 34.694 14.37 9.203 9.203 14.372 21.683 14.372 34.697v507.733c0 13.013-5.169 25.493-14.372 34.694-9.201 9.203-21.681 14.372-34.694 14.372h-797.867zM262.78 588.416c18.003 18.003 42.421 28.117 67.883 28.117h72.533c6.223 0 12.192-2.473 16.593-6.874s6.874-10.37 6.874-16.593c0-6.223-2.473-12.192-6.874-16.593s-10.37-6.874-16.593-6.874h-72.533c-13.013 0-25.495-5.169-34.697-14.372-9.201-9.201-14.37-21.681-14.37-34.694v-145.067c0-13.013 5.169-25.493 14.37-34.697 9.201-9.201 21.683-14.37 34.697-14.37h72.533c6.223 0 12.192-2.473 16.593-6.874s6.874-10.37 6.874-16.593c0-6.223-2.473-12.192-6.874-16.593s-10.37-6.874-16.593-6.874h-72.533c-25.461 0-49.879 10.114-67.883 28.117s-28.117 42.421-28.117 67.883v145.067c0 25.461 10.114 49.879 28.117 67.883zM625.446 588.416c18.003 18.003 42.421 28.117 67.883 28.117h72.533c6.223 0 12.192-2.473 16.593-6.874s6.874-10.37 6.874-16.593c0-6.223-2.473-12.192-6.874-16.593s-10.37-6.874-16.593-6.874h-72.533c-13.013 0-25.495-5.169-34.697-14.372-9.201-9.201-14.37-21.681-14.37-34.694v-145.067c0-13.013 5.169-25.493 14.37-34.697 9.201-9.201 21.683-14.37 34.697-14.37h72.533c6.223 0 12.192-2.473 16.593-6.874s6.874-10.37 6.874-16.593c0-6.223-2.473-12.192-6.874-16.593s-10.37-6.874-16.593-6.874h-72.533c-25.461 0-49.879 10.114-67.883 28.117s-28.117 42.421-28.117 67.883v145.067c0 25.461 10.114 49.879 28.117 67.883z" />
<glyph unicode="&#xe906;" glyph-name="CC-off" d="M27.648-61.952h403.456c11.264 0 20.48 9.216 20.48 20.48v189.44c0 11.264-9.216 20.48-20.48 20.48h-185.344v570.368h184.32c11.264 0 20.48 9.216 20.48 20.48v174.080c0 11.264-9.216 20.48-20.48 20.48h-402.432c-11.264 0-20.48-9.216-20.48-20.48v-974.848c0-11.264 9.216-20.48 20.48-20.48zM48.128 912.896h362.496v-133.12h-185.344c-11.264 0-20.48-9.216-20.48-20.48v-611.328c0-11.264 9.216-20.48 20.48-20.48h184.32v-148.48h-361.472v933.888zM591.872-61.952h403.456c11.264 0 20.48 9.216 20.48 20.48v189.44c0 11.264-9.216 20.48-20.48 20.48h-184.32v570.368h184.32c11.264 0 20.48 9.216 20.48 20.48v174.080c0 11.264-9.216 20.48-20.48 20.48h-403.456c-11.264 0-20.48-9.216-20.48-20.48v-974.848c0-11.264 9.216-20.48 20.48-20.48zM612.352 912.896h362.496v-133.12h-184.32c-11.264 0-20.48-9.216-20.48-20.48v-611.328c0-11.264 9.216-20.48 20.48-20.48h184.32v-148.48h-362.496v933.888z" />
<glyph unicode="&#xe907;" glyph-name="CC-off-1" d="M834.925 797.866h-721.862c-25.461 0-49.879-10.114-67.882-28.118s-28.118-42.421-28.118-67.882v-507.733c0-25.461 10.114-49.879 28.118-67.883s42.422-28.117 67.882-28.117h22.128l46.933 46.933h-69.062c-13.013 0-25.494 5.169-34.695 14.37-9.202 9.203-14.371 21.683-14.371 34.697v507.733c0 13.013 5.17 25.493 14.371 34.694 9.202 9.203 21.682 14.372 34.695 14.372h674.929l46.933 46.933zM626.814 589.756c-0.461-0.442-0.917-0.89-1.367-1.34-0.452-0.452-0.898-0.909-1.34-1.367l2.707 2.707zM339.008 145.067h571.921c13.013 0 25.493 5.169 34.694 14.37 9.203 9.203 14.372 21.683 14.372 34.697v507.733c0 13.013-5.169 25.493-14.372 34.694-2.562 2.564-5.38 4.815-8.395 6.729l33.6 33.598c2.778-2.218 5.444-4.6 7.983-7.139 18.003-18.003 28.117-42.421 28.117-67.882v-507.733c0-25.461-10.114-49.879-28.117-67.883s-42.421-28.117-67.883-28.117h-618.854l46.933 46.933zM597.329 403.388l46.933 46.933v-74.854c0-13.013 5.169-25.493 14.37-34.697 9.201-9.201 21.683-14.37 34.697-14.37h72.533c6.223 0 12.192-2.473 16.593-6.874s6.874-10.37 6.874-16.593c0-6.223-2.473-12.192-6.874-16.593s-10.37-6.874-16.593-6.874h-72.533c-25.461 0-49.879 10.114-67.883 28.117s-28.117 42.421-28.117 67.883v27.921zM763.541 569.6l25.681 25.683c0.070-0.734 0.107-1.474 0.107-2.217 0-6.223-2.473-12.192-6.874-16.593s-10.37-6.874-16.593-6.874h-2.321zM363.458 326.4h-32.796c-13.013 0-25.495 5.169-34.697 14.37-9.201 9.203-14.37 21.683-14.37 34.697v145.067c0 13.013 5.169 25.493 14.37 34.694 9.201 9.203 21.683 14.372 34.697 14.372h72.533c6.223 0 12.192 2.473 16.593 6.874s6.874 10.37 6.874 16.593c0 6.223-2.473 12.192-6.874 16.593s-10.37 6.874-16.593 6.874h-72.533c-25.461 0-49.879-10.114-67.883-28.117s-28.117-42.421-28.117-67.883v-145.067c0-25.461 10.114-49.879 28.117-67.883 14.857-14.857 34.082-24.341 54.658-27.202l46.020 46.018zM79.934-5.399l896 896.001 30.17-30.17-895.999-896.001-30.17 30.17z" />
<glyph unicode="&#xe908;" glyph-name="clipboard" d="M856.064 771.584c0 34.816-33.792 46.080-51.2 47.104h-100.352v21.504c0 33.792-27.648 46.080-46.080 46.080h-10.24c-9.216 0-14.336 6.144-14.336 18.432v8.192c0 13.312-5.12 24.576-13.312 31.744-5.12 5.12-15.36 10.24-30.72 10.24h-149.504c-5.12 0-19.456 0-30.72-11.264-5.12-5.12-13.312-15.36-13.312-31.744v-7.168c0-3.072-1.024-18.432-14.336-18.432h-10.24c-18.432 0-46.080-12.288-46.080-46.080v-21.504h-100.352c-23.552-2.048-50.176-17.408-50.176-47.104v-778.24c0-20.48 12.288-53.248 45.056-53.248h592.896c30.72 0 43.008 28.672 45.056 53.248l-2.048 778.24zM593.92 914.944c0 0 0-1.024 0-2.048v-11.264c0-1.024 0-4.096 1.024-7.168 3.072-22.528 19.456-48.128 54.272-48.128h10.24c5.12 0 5.12-2.048 5.12-5.12v-79.872c0-3.072-1.024-5.12-7.168-7.168h-282.624c-6.144 2.048-7.168 4.096-7.168 7.168v78.848c0 4.096 0 5.12 5.12 5.12h10.24c28.672 0 49.152 18.432 54.272 49.152 1.024 1.024 1.024 3.072 1.024 5.12v13.312c0 1.024 0 1.024 0 2.048 0 0 1.024 0 3.072 0h149.504c2.048 0 3.072 0 3.072 0zM705.536 761.344v18.432h99.328c0 0 11.264-1.024 11.264-7.168v-776.192c0-5.12-2.048-12.288-4.096-13.312h-590.848c-2.048 1.024-4.096 7.168-4.096 13.312v775.168c0 6.144 11.264 7.168 11.264 7.168h99.328v-18.432c0-31.744 27.648-45.056 41.984-47.104h295.936c18.432 4.096 39.936 19.456 39.936 48.128zM311.296 479.744h103.424c18.432 0 34.816 15.36 34.816 34.816v103.424c0 18.432-15.36 34.816-34.816 34.816h-103.424c-18.432 0-34.816-15.36-34.816-34.816v-103.424c1.024-19.456 16.384-34.816 34.816-34.816zM317.44 520.704v91.136h91.136v-91.136h-91.136zM311.296 245.248h103.424c18.432 0 34.816 15.36 34.816 34.816v104.448c0 18.432-15.36 34.816-34.816 34.816h-103.424c-18.432 0-34.816-15.36-34.816-34.816v-103.424c1.024-19.456 16.384-35.84 34.816-35.84zM317.44 287.232v91.136h91.136v-91.136h-91.136zM287.744 131.584c-11.264 0-20.48-8.192-20.48-20.48 0-11.264 8.192-20.48 20.48-20.48h452.608c11.264 0 20.48 8.192 20.48 20.48 0 11.264-9.216 20.48-20.48 20.48h-452.608zM603.136 614.912c0-11.264 8.192-20.48 20.48-20.48h108.544c11.264 0 20.48 8.192 20.48 20.48s-8.192 20.48-20.48 20.48h-108.544c-12.288 0-20.48-8.192-20.48-20.48zM461.824 796.16h108.544c11.264 0 20.48 8.192 20.48 20.48s-8.192 20.48-20.48 20.48h-108.544c-11.264 0-20.48-8.192-20.48-20.48 0-11.264 9.216-20.48 20.48-20.48zM623.616 494.080h108.544c11.264 0 20.48 8.192 20.48 20.48 0 11.264-8.192 20.48-20.48 20.48h-108.544c-11.264 0-20.48-8.192-20.48-20.48 0-11.264 8.192-20.48 20.48-20.48zM623.616 359.936h108.544c11.264 0 20.48 8.192 20.48 20.48s-8.192 20.48-20.48 20.48h-108.544c-11.264 0-20.48-8.192-20.48-20.48s8.192-20.48 20.48-20.48zM623.616 260.608h108.544c11.264 0 20.48 8.192 20.48 20.48 0 11.264-8.192 20.48-20.48 20.48h-108.544c-11.264 0-20.48-8.192-20.48-20.48s8.192-20.48 20.48-20.48zM516.096 260.608h47.104c11.264 0 20.48 8.192 20.48 20.48 0 11.264-8.192 20.48-20.48 20.48h-47.104c-11.264 0-20.48-8.192-20.48-20.48-1.024-11.264 8.192-20.48 20.48-20.48zM516.096 359.936h47.104c11.264 0 20.48 8.192 20.48 20.48s-8.192 20.48-20.48 20.48h-47.104c-11.264 0-20.48-8.192-20.48-20.48-1.024-11.264 8.192-20.48 20.48-20.48zM516.096 494.080h47.104c11.264 0 20.48 8.192 20.48 20.48 0 11.264-8.192 20.48-20.48 20.48h-47.104c-11.264 0-20.48-8.192-20.48-20.48-1.024-11.264 8.192-20.48 20.48-20.48zM516.096 594.432h47.104c11.264 0 20.48 8.192 20.48 20.48s-8.192 20.48-20.48 20.48h-47.104c-11.264 0-20.48-8.192-20.48-20.48-1.024-11.264 8.192-20.48 20.48-20.48z" />
<glyph unicode="&#xe909;" glyph-name="close" d="M481.278 449.024l-482.304-482.304 30.72-30.72 482.304 482.304 482.304-482.304 30.72 30.72-482.304 482.304 480.256 480.256-30.72 30.72-480.256-480.256-480.256 480.256-30.72-30.72 480.256-480.256z" />
<glyph unicode="&#xe90a;" glyph-name="comments" d="M885.76 942.592h-747.52c-76.8 0-138.24-62.464-138.24-138.24v-504.832c0-75.776 61.44-138.24 138.24-138.24h15.36l-1.024-207.872 301.056 207.872h432.128c76.8 0 138.24 62.464 138.24 138.24v504.832c0 75.776-61.44 138.24-138.24 138.24zM984.064 299.52c0-54.272-44.032-98.304-98.304-98.304h-444.416l-248.832-172.032 1.024 172.032h-55.296c-54.272 0-98.304 44.032-98.304 98.304v504.832c0 54.272 44.032 98.304 98.304 98.304h747.52c54.272 0 98.304-44.032 98.304-98.304v-504.832zM370.688 563.712c0-32.768-26.624-59.392-59.392-59.392s-59.392 26.624-59.392 59.392c0 32.768 26.624 59.392 59.392 59.392s59.392-26.624 59.392-59.392zM571.392 563.712c0-32.768-26.624-59.392-59.392-59.392s-59.392 26.624-59.392 59.392c0 32.768 26.624 59.392 59.392 59.392s59.392-26.624 59.392-59.392zM772.096 557.568c0-32.768-26.624-59.392-59.392-59.392s-59.392 26.624-59.392 59.392c0 32.768 26.624 59.392 59.392 59.392s59.392-26.624 59.392-59.392z" />
<glyph unicode="&#xe90b;" glyph-name="creepy-ghost" d="M816.518 98.005c-196.992 19.076-80.887 357.771-39.949 328.832 85.218-42.027 80.864 59.138 218.406-67.458 55.529 162.249 24.768 292.13-41.585 249.175-82.426-58.959-156.081-88.704-141.946-43.761 155.356 417.8-532.237 536.628-585.003 72.173-30.277-57.632-134.187 59.507-174.735 55.59-53.979-14.24-64.853-95.723-36.558-237.867 114.010 109.884 107.704 36.527 198.013 49.643 24.318-371.454 198.029-569.956 607.294-495.682 79.812 17.728 145.282-5.12 203.543-48.188-6.037 75.006-74.784 120.785-207.479 137.542h-0.002zM363.58 776.757l126.31-124.416c-85.18-42.694-175.866 33.954-126.31 124.416zM656.602 512.122c-9.163-24.427-25.342-49.269-48.591-74.541l-17.943 28.452-42.082-46.825-28.279 49.95-42.942-54.731-16.068 65.427-41.634-42.453-15.381 78.677-44.732-38.592-3.055 69.417-19.806-14.699c-2.364 12.646-4.117 35.578-5.225 68.762 25.534-49.389 70.349-84.017 134.468-103.81 9.084-2.197 19.857-3.951 32.343-5.282 56.727-6.065 109.726 0.693 158.929 20.25l-0.002-0.002zM587.599 638.193l163.789 67.876c11.97-102.447-100.87-139.435-163.789-67.876z" />
<glyph unicode="&#xe90c;" glyph-name="digg" d="M851.968 292.352c17.408 0 35.84 0 53.248 0 7.168 0 12.288 2.048 17.408 7.168 4.096 4.096 7.168 10.24 7.168 17.408 0 57.344 0 114.688 0 172.032 0 2.048 0 3.072 0 5.12 0 1.024 0 2.048-1.024 3.072-3.072 8.192-10.24 14.336-19.456 14.336h-59.392c-11.264 0-20.48-9.216-20.48-20.48v-3.072c0-57.344 0-114.688 0-172.032-1.024-13.312 8.192-23.552 22.528-23.552zM887.808 470.528c0-46.080 0-91.136 0-137.216-3.072 0-6.144 0-9.216 0s-6.144 0-9.216 0c0 46.080 0 91.136 0 137.216h18.432zM1006.592 590.336h-256c-1.024 0-3.072 0-4.096 0h-1.024c-1.024 0-2.048 0-2.048-1.024 0 0-1.024 0-1.024-1.024-1.024 0-1.024-1.024-2.048-1.024l-1.024-1.024c-1.024 0-1.024-1.024-2.048-1.024l-1.024-1.024c-1.024-1.024-1.024-1.024-1.024-2.048l-1.024-1.024c0-1.024-1.024-1.024-1.024-2.048 0 0 0-1.024-1.024-1.024 0-1.024-1.024-2.048-1.024-3.072 0 1.024-1.024 2.048-1.024 3.072 0 0 0 1.024-1.024 1.024 0 1.024-1.024 1.024-1.024 2.048l-1.024 1.024c0 1.024-1.024 1.024-1.024 2.048l-1.024 1.024c-1.024 1.024-1.024 1.024-2.048 1.024l-1.024 1.024c-1.024 0-1.024 1.024-2.048 1.024 0 0-1.024 0-1.024 1.024-1.024 0-2.048 1.024-2.048 1.024h-1.024c0 0-3.072 0-4.096 0h-256c-1.024 0-3.072 0-4.096 0h-1.024c-1.024 0-2.048 0-2.048-1.024 0 0-1.024 0-1.024-1.024-1.024 0-1.024-1.024-2.048-1.024l-1.024-1.024c-1.024 0-1.024-1.024-2.048-1.024l-1.024-1.024c-1.024-1.024-1.024-1.024-1.024-2.048l-1.024-1.024c-1.024-1.024-1.024-2.048-1.024-2.048s0 0 0-1.024-1.024-2.048-1.024-3.072c0 1.024-1.024 3.072-2.048 4.096 0 0 0 1.024-1.024 1.024-1.024 1.024-2.048 3.072-3.072 4.096s-2.048 2.048-4.096 3.072c0 0-1.024 0-1.024 1.024-1.024 1.024-3.072 1.024-5.12 2.048 1.024 0 2.048 1.024 4.096 1.024h1.024c1.024 0 2.048 1.024 2.048 1.024l1.024 1.024c1.024 0 1.024 1.024 2.048 1.024l1.024 1.024c1.024 1.024 1.024 1.024 1.024 2.048l1.024 1.024c0 1.024 1.024 1.024 1.024 2.048 0 0 0 1.024 1.024 1.024 0 1.024 1.024 2.048 1.024 2.048v1.024c0 0 0 3.072 0 4.096v98.304c0 11.264-9.216 20.48-20.48 20.48h-98.304c-1.024 0-3.072 0-4.096 0h-1.024c-1.024 0-2.048 0-2.048-1.024 0 0-1.024 0-1.024-1.024-1.024 0-1.024-1.024-2.048-1.024l-1.024-1.024c-1.024 0-1.024-1.024-2.048-1.024l-1.024-1.024c-1.024-1.024-1.024-1.024-2.048-2.048 0 0 0-1.024-1.024-1.024-1.024-1.024-1.024-2.048-1.024-3.072s-1.024-2.048-1.024-3.072c0 1.024-1.024 2.048-1.024 3.072 0 0 0 0 0 1.024s-1.024 2.048-1.024 3.072c0 0 0 1.024-1.024 1.024 0 1.024-1.024 1.024-2.048 2.048l-1.024 1.024c-1.024 1.024-1.024 1.024-2.048 1.024l-1.024 1.024c-1.024 0-1.024 1.024-2.048 1.024 0 0-1.024 0-1.024 1.024-1.024 0-2.048 1.024-2.048 1.024h-1.024c0 0-2.048 0-4.096 0h-98.303c-11.264 0-20.48-9.216-20.48-20.48v-117.76h-141.312c-11.264 0-20.48-9.216-20.48-20.48v-335.872c0-11.264 9.216-20.48 20.48-20.48h252.927c2.048 0 3.072 0 5.12 0h1.024c1.024 0 2.048 0 3.072 1.024 1.024 0 1.024 0 1.024 1.024 1.024 0 2.048 1.024 2.048 1.024l1.024 1.024c0 0 1.024 1.024 2.048 2.048l1.024 1.024c1.024 1.024 2.048 2.048 2.048 3.072 1.024 1.024 1.024 2.048 2.048 4.096v1.024c0 1.024 1.024 1.024 1.024 2.048v-1.024c0 0 0-1.024 1.024-2.048 0 0 0-1.024 1.024-1.024 0-1.024 1.024-1.024 1.024-2.048l1.024-1.024c0-1.024 1.024-1.024 1.024-2.048l1.024-1.024c1.024 0 1.024-1.024 2.048-1.024l1.024-1.024c1.024 0 1.024-1.024 2.048-1.024 0 0 1.024 0 1.024-1.024 1.024 0 2.048-1.024 2.048-1.024h1.024c0 0 3.072 0 4.096 0h98.304c1.024 0 3.072 0 4.096 0h1.024c1.024 0 2.048 0 2.048 1.024 0 0 1.024 0 1.024 1.024 1.024 0 1.024 1.024 2.048 1.024l1.024 1.024c1.024 0 1.024 1.024 2.048 1.024l1.024 1.024c1.024 1.024 1.024 1.024 2.048 2.048 0 0 0 1.024 1.024 1.024 1.024 1.024 1.024 2.048 2.048 3.072 0 1.024 1.024 2.048 1.024 3.072 0-2.048 1.024-3.072 2.048-5.12 1.024-1.024 2.048-3.072 3.072-4.096 0 0 0 0 1.024-1.024s2.048-2.048 4.096-3.072c0 0 0 0 1.024 0 1.024-1.024 3.072-2.048 5.12-2.048-6.144-2.048-12.288-6.144-14.336-13.312-1.024-2.048-1.024-4.096-1.024-7.168v-78.848c0-11.264 9.216-20.48 20.48-20.48h256c1.024 0 3.072 0 4.096 0h1.024c1.024 0 2.048 0 2.048 1.024 0 0 1.024 0 1.024 1.024 1.024 0 1.024 1.024 2.048 1.024l1.024 1.024c1.024 0 1.024 1.024 2.048 1.024l1.024 1.024c1.024 1.024 1.024 1.024 1.024 2.048l1.024 1.024c0 1.024 1.024 1.024 1.024 2.048 0 0 0 1.024 1.024 1.024 0 1.024 1.024 2.048 1.024 4.096 0-1.024 1.024-2.048 1.024-4.096v-1.024c0-1.024 1.024-2.048 1.024-2.048l1.024-1.024c0-1.024 1.024-1.024 1.024-2.048l1.024-1.024c3.072 0 3.072-1.024 4.096-1.024l1.024-1.024c1.024 0 1.024-1.024 2.048-1.024 0 0 1.024 0 1.024-1.024 1.024 0 2.048-1.024 2.048-1.024h1.024c0 0 2.048 0 4.096 0h256c11.264 0 20.48 9.216 20.48 20.48v453.632c1.024 11.264-8.192 20.48-19.456 20.48zM254.976 254.464h-215.039v294.912h137.216c11.264 0 20.48 9.216 20.48 20.48v117.76h57.343v-433.152zM307.2 588.288c0 0-1.024 0-1.024-1.024-1.024-1.024-2.048-1.024-3.072-2.048 0 0-1.024 0-1.024-1.024-1.024-1.024-2.048-2.048-3.072-4.096 0 0 0 0 0-1.024-1.024-1.024-1.024-2.048-2.048-4.096 0 0 0 0 0-1.024v27.648c0 0 0 0 0-1.024s1.024-3.072 2.048-4.096c0 0 0 0 0-1.024 1.024-1.024 2.048-2.048 3.072-3.072l1.024-1.024c1.024-1.024 2.048-1.024 3.072-2.048 0 0 1.024 0 1.024-1.024 1.024-1.024 3.072-1.024 4.096-2.048-1.024 3.072-3.072 2.048-4.096 2.048zM335.872 687.616h57.344v-57.344h-57.344v57.344zM393.216 255.488h-57.344v293.888h57.344v-293.888zM689.152 136.704h-215.040v37.888h137.216c11.264 0 20.48 9.216 20.48 20.48v39.936c0 11.264-9.216 20.48-20.48 20.48h-137.216v293.888h215.040v-412.672zM740.352 212.48c-2.048-1.024-3.072-2.048-4.096-3.072s-2.048-2.048-3.072-3.072c0 0 0 0 0-1.024-1.024-1.024-1.024-3.072-2.048-4.096v27.648c0-1.024 1.024-3.072 2.048-4.096 0 0 0 0 0-1.024 1.024-1.024 2.048-2.048 3.072-3.072 0 0 0 0 0-1.024 1.024-1.024 2.048-2.048 4.096-3.072h1.024c1.024-1.024 3.072-1.024 4.096-2.048-2.048 0-3.072-1.024-5.12-2.048zM986.112 136.704h-215.040v37.888h137.216c11.264 0 20.48 9.216 20.48 20.48v39.936c0 11.264-9.216 20.48-20.48 20.48h-137.216v293.888h215.040v-412.672zM552.96 292.352h59.392c11.264 0 20.48 9.216 20.48 20.48v178.176c0 11.264-9.216 20.48-20.48 20.48h-59.392c-11.264 0-20.48-9.216-20.48-20.48v-177.152c0-12.288 9.216-21.504 20.48-21.504zM573.44 470.528h18.432v-136.192h-18.432v136.192zM174.081 511.488c-17.408 0-35.84 0-53.248 0-13.312 0-23.552-10.24-23.552-23.552 0-57.344 0-114.688 0-172.032 0-13.312 10.24-23.552 23.552-23.552 17.408 0 35.84 0 53.248 0h3.072c11.264 0 19.456 9.216 20.48 19.456v1.024c0 1.024 0 2.048 0 3.072 0 57.344 0 114.688 0 172.032 0 13.312-9.216 23.552-23.552 23.552zM156.673 333.312c-6.144 0-12.288 0-18.432 0 0 46.080 0 91.136 0 137.216 6.144 0 12.288 0 18.432 0 0-46.080 0-91.136 0-137.216z" />
<glyph unicode="&#xe90d;" glyph-name="down" d="M512.002 179.712c-5.12 0-10.24 2.048-14.336 6.144l-493.569 495.616c-8.192 8.192-8.192 20.48 0 28.672s20.48 8.192 28.672 0l479.233-481.28 479.232 481.28c8.192 8.192 20.478 8.192 28.672 0 8.192-8.192 8.192-20.48 0-28.672l-493.568-495.616c-4.096-4.096-9.216-6.144-14.336-6.144z" />
<glyph unicode="&#xe90e;" glyph-name="download" d="M498.688 59.904c4.096-4.096 9.216-7.168 15.36-7.168s11.264 3.072 15.36 7.168l200.704 232.448c7.168 8.192 6.144 21.504-2.048 28.672s-21.504 6.144-28.672-2.048l-166.912-192.512v813.056c0 11.264-9.216 20.48-20.48 20.48s-20.48-9.216-20.48-20.48v-809.984l-166.912 190.464c-7.168 8.192-20.48 9.216-28.672 2.048s-9.216-20.48-2.048-28.672l204.8-233.472zM1002.496 274.944c-11.264 0-20.48-9.216-20.48-20.48v-273.408h-940.033v273.408c0 11.264-9.216 20.48-20.48 20.48s-20.48-9.216-20.48-20.48v-293.888c0-11.264 9.216-20.48 20.48-20.48h982.017c11.264 0 20.48 9.216 20.48 20.48v293.888c-1.024 12.288-10.24 20.48-21.504 20.48z" />
<glyph unicode="&#xe90f;" glyph-name="email" d="M913.408 776.704c-71.68 105.472-198.656 177.152-321.536 182.272-106.496 5.12-266.24-41.984-386.048-156.672-107.52-103.424-163.84-245.76-162.816-412.672 1.024-211.968 102.4-320.512 188.416-374.784 74.752-47.104 169.984-71.68 265.216-71.68 78.848 0 157.696 16.384 227.328 49.152 10.24 5.12 15.36 17.408 10.24 27.648s-17.408 15.36-27.648 10.24c-115.712-55.296-306.176-71.68-452.608 19.456-110.592 69.632-168.96 187.392-168.96 339.968-1.024 157.696 50.176 285.696 150.528 382.976 109.568 105.472 260.096 148.48 354.304 144.384 110.592-5.12 224.256-69.632 288.768-163.84 46.080-68.608 90.112-183.296 34.816-346.112-39.936-117.76-104.448-174.080-179.2-158.72-56.32 11.264-91.136 54.272-90.112 66.56 6.144 54.272 60.416 348.16 60.416 351.232 2.048 11.264-5.12 22.528-16.384 24.576s-22.528-5.12-24.576-16.384c-1.024-4.096-7.168-36.864-15.36-81.92-5.12 9.216-10.24 18.432-16.384 26.624-23.552 29.696-52.224 47.104-84.992 50.176-130.048 10.24-224.256-96.256-240.64-273.408-5.12-57.344 7.168-103.424 36.864-136.192 24.576-27.648 61.44-43.008 99.328-43.008 30.72 0 106.496 22.528 162.816 87.040 10.24-38.912 62.464-81.92 118.784-94.208 47.104-10.24 162.816-13.312 231.424 185.344 59.392 177.152 10.24 306.176-41.984 381.952zM440.32 256.512c-9.216 0-43.008 2.048-67.584 29.696-21.504 23.552-29.696 58.368-25.6 103.424 14.336 153.6 89.088 243.712 195.584 235.52 20.48-2.048 38.912-13.312 55.296-33.792 26.624-34.816 35.84-81.92 32.768-99.328-5.12-27.648-9.216-54.272-14.336-79.872-35.84-125.952-155.648-155.648-176.128-155.648z" />
<glyph unicode="&#xe910;" glyph-name="embed" d="M47.783 447.296l320.761 320.016c7.29 7.273 7.29 19.092-2.084 25.456-8.331 6.364-21.869 5.455-29.158-1.818l-332.217-330.926c-6.249-6.364-7.29-16.365 0-23.637l339.506-356.382c4.164-4.546 10.413-6.364 15.62-6.364s9.374 1.818 13.538 4.546c8.333 6.364 10.415 18.182 3.125 25.455l-329.092 343.654zM1018.396 460.023l-332.218 330.926c-7.29 7.273-20.828 8.182-29.158 1.818-8.333-6.364-9.374-18.183-2.084-25.456l320.762-320.016-328.051-344.563c-7.29-7.273-6.249-19.091 3.125-25.457 4.164-2.726 8.331-4.544 13.538-4.544 6.249 0 11.456 1.818 15.62 6.364l339.507 356.382c6.249 7.273 6.249 17.274-1.041 24.546zM566.415 874.59c-11.456 0.909-21.871-6.364-22.912-16.364l-82.272-838.225c-1.041-9.999 7.29-19.091 18.746-20 1.041 0 1.041 0 2.082 0 10.415 0 19.787 7.273 20.83 16.365l82.272 838.224c2.082 10.91-7.29 19.092-18.746 20.001z" />
<glyph unicode="&#xe911;" glyph-name="facebook" d="M592.619-64h-220.354v459.123h-121.389v210.852h121.387v118.402c0 108.699 68.006 235.622 259.75 235.622 67.593 0 117.214-6.335 119.292-6.608l20.343-2.645-4.898-197.323-22.421 0.206c-0.047 0-50.419 0.479-105.37 0.479-40.896 0-46.319-10.092-46.319-50.235v-97.943h180.484l-10.001-210.854h-170.462v-459.076h-0.043zM417.803-18.432h129.227v459.098h172.557l5.696 119.744h-178.253v143.509c0 47.389 10.91 95.803 91.878 95.803 32.538 0 63.454-0.16 83.341-0.319l2.756 110.929c-20.117 1.801-53.585 4.102-93.043 4.102-157.905 0-214.182-98.171-214.182-190.056v-163.968h-121.382v-119.744h121.385v-459.098h0.021z" />
<glyph unicode="&#xe912;" glyph-name="FF-left" d="M1012.736 833.024c-7.17 3.072-15.362 3.072-21.506-2.048l-465.92-363.52v347.136c0 8.192-4.096 15.36-11.264 18.432s-15.36 2.048-21.504-2.048l-482.303-375.808c-5.12-4.096-8.192-10.24-8.192-16.384s3.072-12.288 8.192-16.384l481.279-375.808c4.096-3.072 8.192-4.096 12.288-4.096 3.072 0 6.144 1.024 9.216 2.048 7.168 3.072 11.266 10.24 11.266 18.432v348.16l465.918-363.52c4.096-3.072 8.192-4.096 12.288-4.096 3.072 0 6.144 1.024 9.216 2.048 7.168 3.072 11.266 10.24 11.266 18.432v750.592c1.024 8.192-3.074 15.36-10.24 18.432zM484.35 104.96l-428.031 333.824 428.031 333.824v-667.648zM983.038 104.96l-427.008 333.824 427.008 333.824v-667.648z" />
<glyph unicode="&#xe913;" glyph-name="FF-right" d="M12.286 833.024c7.168 3.072 15.36 3.072 21.504-2.048l465.92-363.52v347.136c0 8.192 4.096 15.36 11.264 18.432s15.36 2.048 21.504-2.048l482.304-375.808c5.12-4.096 8.192-10.24 8.192-16.384s-3.072-12.288-8.192-16.384l-481.28-375.808c-4.096-3.072-8.192-4.096-12.288-4.096-3.072 0-6.144 1.024-9.216 2.048-7.168 3.072-11.264 10.24-11.264 18.432v348.16l-465.92-363.52c-4.096-3.072-8.192-4.096-12.288-4.096-3.072 0-6.144 1.024-9.216 2.048-7.168 3.072-11.264 10.24-11.264 18.432v750.592c-1.024 8.192 3.072 15.36 10.24 18.432zM540.67 104.96l428.032 333.824-428.032 333.824v-667.648zM41.982 104.96l427.008 333.824-427.008 333.824v-667.648z" />
<glyph unicode="&#xe914;" glyph-name="flash" d="M172.032-57.856c-5.12 0-10.24 1.024-15.36 2.048-19.456 3.072-33.792 18.432-34.816 38.912v1.024c0 10.24-1.024 20.48-1.024 30.72-1.024 20.48-2.048 41.984-2.048 63.488 0 22.528 1.024 46.080 2.048 68.608 0 11.264 1.024 22.528 1.024 32.768 0 17.408 11.264 32.768 27.648 38.912 10.24 4.096 21.504 6.144 31.744 6.144 48.128 1.024 84.992 21.504 114.688 63.488 18.432 27.648 30.72 60.416 41.984 91.136 15.36 41.984 29.696 86.016 43.008 128 6.144 18.432 12.288 36.864 18.432 56.32 24.576 74.752 49.152 131.072 77.824 181.248 34.816 61.44 73.728 107.52 119.808 140.288 50.176 35.84 104.448 57.344 165.888 67.584 14.336 2.048 28.672 3.072 43.008 4.096 11.584 0.828 19.968-0.085 26.112 0.939 6.144 0 9.728 1.109 18.944-2.987 24.576-5.12 34.816-17.408 37.888-43.008v-3.072c1.024-11.264 2.048-21.504 2.048-33.792 0-23.552 0-47.104 0-71.68 0-23.552 0-47.104 0-70.656 0-4.096 0-10.24-1.024-16.384-3.072-23.552-17.408-37.888-40.96-40.96h-1.024c-5.12 0-10.24-1.024-15.36-1.024-9.216 0-18.432-1.024-27.648-2.048-20.48-3.072-36.864-7.168-53.248-12.288-11.264-4.096-22.528-11.264-30.72-21.504-11.264-13.312-20.48-28.672-28.672-47.104 16.384 0 31.744 0 47.104 0 16.384 0 32.768-1.024 49.152-3.072 24.576-3.072 37.888-17.408 39.936-40.96 2.048-20.48 3.072-43.008 3.072-65.536 0-41.984-1.024-86.016-2.048-121.856l-2.048-4.096c0-1.024 0-2.048 0-4.096 0-3.072-1.024-6.144-1.024-9.216-4.096-17.408-15.36-28.672-31.744-31.744-8.192-2.048-18.432-3.072-29.696-3.072-53.248-1.024-108.544-1.024-161.792-1.024-30.72-90.112-75.776-165.888-139.264-231.424-64.512-65.536-133.12-106.496-209.92-122.88-18.432-4.096-37.888-6.144-56.32-8.192-6.144-1.024-12.288-1.024-18.432-2.048-2.048 0-5.12 0-7.168 0zM160.768-14.848c0-3.072 1.024-3.072 3.072-3.072 6.144-1.024 8.192-1.024 8.192-1.024h1.024c6.144 1.024 12.288 1.024 19.456 2.048 17.408 2.048 35.84 4.096 52.224 7.168 68.608 15.36 131.072 52.224 190.464 112.64 60.416 62.464 103.424 134.144 132.096 221.184 4.096 14.336 15.36 21.504 29.696 21.504 55.296 0 111.616 0 166.912 1.024 8.192 0 15.36 1.024 21.504 2.048h2.048c0 0 0 1.024 1.024 2.048 0 2.048 0 3.072 1.024 4.096 0 2.048 1.024 4.096 1.024 6.144 1.024 34.816 2.048 78.848 2.048 118.784 0 21.504-1.024 41.984-3.072 61.44 0 2.048 0 3.072-1.024 4.096-1.024 0-2.048 1.024-5.12 1.024-15.36 2.048-29.696 3.072-45.056 3.072-15.36 1.024-31.744 0-49.152 0-9.216 0-18.432 0-27.648 0h-31.744l14.336 28.672c3.072 6.144 6.144 12.288 9.216 18.432 11.264 23.552 21.504 46.080 38.912 65.536 13.312 16.384 30.72 27.648 49.152 33.792s36.864 10.24 59.392 13.312c11.264 1.024 21.504 2.048 31.744 2.048 4.096 0 9.216 0 13.312 1.024s5.12 1.024 5.12 1.024c0 0 1.024 1.024 1.024 6.144v1.024c1.024 3.072 1.024 6.144 1.024 10.24 0 23.552 0 47.104 0 71.68 0 23.552 0 47.104 0 70.656 0 10.24-1.024 19.456-2.048 30.72v2.048c-1.024 6.144-1.024 8.192-1.024 9.216 0 0-2.048 1.024-7.168 1.024h-3.072l-3.072 1.024c4.096 0-1.024 1.024 0 0-8.192 1.404-19.456 1.024-26.624 0-13.312-1.024-27.648-2.048-39.936-4.096-55.296-8.192-104.448-28.672-149.504-60.416-41.984-29.696-76.8-71.68-108.544-128-27.648-48.128-51.2-101.376-74.752-174.080-6.144-18.432-12.288-36.864-18.432-55.296-14.336-41.984-28.672-86.016-43.008-129.024-11.264-33.792-24.576-68.608-46.080-100.352-36.864-52.224-86.016-78.848-146.432-79.872-6.144 0-12.288-1.024-19.456-4.096-2.048-1.024-2.048-1.024-2.048-2.048 0-11.264-1.024-22.528-1.024-33.792-1.024-22.528-2.048-45.056-2.048-67.584 0-20.48 1.024-41.984 2.048-61.44-1.024-10.24 0-20.48 0-31.744z" />
<glyph unicode="&#xe915;" glyph-name="flikr" d="M804.45 661.333c-121.626 0-219.55-95.153-219.55-213.333 0-118.187 98.953-213.333 219.55-213.333 121.626 0 219.55 95.153 219.55 213.333s-97.924 213.333-219.55 213.333zM629.984 447.008c0 93.086 78.667 169.525 174.466 169.525 95.806 0 174.466-75.456 174.466-169.525 0-93.086-78.669-169.525-174.466-169.525-95.799 0-174.466 76.439-174.466 169.525zM219.55 660.341c-121.631 0-219.55-96.149-219.55-213.333 0-117.188 97.925-212.341 218.53-212.341 121.598 0 220.57 94.135 220.57 212.341 0 118.18-97.924 213.333-219.55 213.333zM45.084 447.008c0 94.086 77.655 169.525 173.446 169.525 96.811 0 174.47-75.441 175.486-169.536-0.006-93.082-78.671-169.515-174.466-169.515-95.798 0-174.466 76.439-174.466 169.525z" />
<glyph unicode="&#xe916;" glyph-name="fullscreen" d="M368.64 954.88h-342.017c-11.264 0-20.48-9.216-20.48-20.48v-333.824c0-11.264 9.216-20.48 20.48-20.48s20.48 9.216 20.48 20.48v313.344h321.537c11.264 0 20.48 9.216 20.48 20.48s-9.216 20.48-20.48 20.48zM997.376 954.88h-342.016c-11.264 0-20.48-9.216-20.48-20.48s9.216-20.48 20.48-20.48h322.56v-313.344c0-11.264 9.216-20.48 20.48-20.48s20.48 9.216 20.48 20.48v333.824c-1.024 11.264-9.216 20.48-21.504 20.48zM368.64-17.92h-321.537v313.344c0 11.264-9.216 20.48-20.48 20.48s-20.48-9.216-20.48-20.48v-333.824c0-11.264 9.216-20.48 20.48-20.48h342.017c11.264 0 20.48 9.216 20.48 20.48s-9.216 20.48-20.48 20.48zM997.376 315.904c-11.264 0-20.48-9.216-20.48-20.48v-313.344h-321.536c-11.264 0-20.48-9.216-20.48-20.48s9.216-20.48 20.48-20.48h343.040c11.264 0 20.48 9.216 20.48 20.48v333.824c-1.024 11.264-9.216 20.48-21.504 20.48z" />
<glyph unicode="&#xe917;" glyph-name="full-width" d="M22.527 863.744c-11.264 0-20.48-9.216-20.48-20.48v-817.152c0-11.264 9.216-20.48 20.48-20.48s20.48 9.216 20.48 20.48v817.152c0 11.264-9.216 20.48-20.48 20.48zM1001.47 863.744c-11.264 0-20.48-9.216-20.48-20.48v-817.152c0-11.264 9.216-20.48 20.48-20.48s20.48 9.216 20.48 20.48v817.152c0 11.264-9.216 20.48-20.48 20.48zM969.726 455.168l-181.248 208.896c-7.168 8.192-20.48 9.216-28.672 2.048s-9.216-20.48-2.046-28.672l154.622-179.2h-802.815l154.623 178.176c7.168 8.192 6.144 21.504-2.048 28.672s-21.504 6.144-28.672-2.048l-185.343-212.992c-7.168-8.192-7.168-19.456 0-26.624l185.343-210.944c4.096-5.12 9.216-7.168 15.36-7.168 5.12 0 9.216 2.048 13.312 5.12 8.192 7.168 9.216 20.48 2.048 28.672l-156.671 178.176h806.911l-156.67-178.176c-7.17-8.192-6.146-21.504 2.046-28.672 4.096-3.072 8.192-5.12 13.312-5.12 6.144 0 11.264 2.048 15.36 7.168l185.344 210.944c3.072 4.096 5.12 9.216 5.12 14.336 0 0 0 0 0 1.024 0 6.144-3.072 12.288-9.216 16.384z" />
<glyph unicode="&#xe918;" glyph-name="gallery" d="M1019.904 843.264c1.024 9.216-3.072 18.432-9.216 25.6-8.192 8.192-17.408 12.288-27.648 12.288h-806.912c-20.48 0-36.864-17.408-36.864-36.864v-29.696h-30.72c-20.48 0-36.864-17.408-36.864-36.864v-29.696h-30.72c-20.48 0-36.864-17.408-36.864-36.864v-656.384c0-20.48 17.408-36.864 36.864-36.864h807.936c20.48 0 36.864 17.408 36.864 36.864v29.696h30.72c20.48 0 36.864 17.408 36.864 36.864v29.696h29.696c20.48 0 36.864 17.408 36.864 36.864v655.36zM916.48 813.568h-737.28v25.6h799.744v-647.168h-25.6v583.68c0 20.48-16.384 37.888-36.864 37.888zM848.896 745.984h-737.28v25.6h799.744v-647.168h-25.6v583.68c0 20.48-16.384 37.888-36.864 37.888zM844.8 343.552l-80.896 93.184c-4.096 4.096-9.216 6.144-15.36 6.144s-12.288-2.048-15.36-6.144l-105.472-119.808-286.72 256c-4.096 4.096-8.192 6.144-13.312 6.144s-10.24-2.048-13.312-5.12l-270.336-239.616v370.688h799.744v-361.472h1.024zM45.056 279.040l282.624 250.88 288.768-257.024c5.12-5.12 12.288-5.12 14.336-5.12 6.144 0 11.264 3.072 15.36 7.168l102.4 116.736 97.28-110.592v-225.28h-800.768v223.232zM614.4 609.792c-37.888 0-68.608-30.72-68.608-68.608s30.72-68.608 68.608-68.608c37.888 0 68.608 30.72 68.608 68.608s-30.72 68.608-68.608 68.608zM614.4 507.392c-18.432 0-33.792 15.36-33.792 33.792s15.36 33.792 33.792 33.792c18.432 0 33.792-15.36 33.792-33.792s-14.336-33.792-33.792-33.792z" />
<glyph unicode="&#xe919;" glyph-name="gallery-fullscreen" d="M343.038 308.736l-296.96-297.984v128h-41.984v-180.224l19.456-19.456h180.224v43.008h-129.024l297.984 296.96-29.696 29.696zM679.934 586.24l297.984 299.008v-128h41.984v179.2l-19.456 19.456h-179.2v-41.984h128l-299.008-297.984 29.696-29.696z" />
<glyph unicode="&#xe91a;" glyph-name="gallery-normalscreen" d="M33.79-60.928l296.96 297.984v-128h41.984v180.224l-19.456 19.456h-180.224v-43.008h129.024l-297.984-296.96 29.696-29.696zM990.206 955.904l-297.984-299.008v128h-41.984v-179.2l19.456-19.456h179.2v41.984h-128l299.008 297.984-29.696 29.696z" />
<glyph unicode="&#xe91b;" glyph-name="ghost" d="M488.819 960c-186.276 0-337.778-149.102-337.778-332.427v-366.72c0-68.99-24.413-136.164-68.252-189.788-20.389-24.909-24.622-58.861-10.549-87.947 14.085-29.109 43.674-47.119 76.022-47.119h389.942c159.341 0 289.037 127.642 289.037 284.457v5.259h43.825c49.028 0 88.934 39.275 88.934 87.526 0 47.657-39.945 86.893-88.934 86.893h-43.825v227.439c0 39.358-7.206 78.057-20.949 114.799-4.083 11.827-17.589 17.009-28.663 13.376-12.102-3.97-17.419-17.316-13.715-28.251l0.075-0.198c11.898-32.045 18.144-65.274 18.144-99.725v-407.748c0-132.271-109.527-240.062-243.927-240.062h-389.3c-15.702 0-29.071 8.446-35.536 22.231-6.533 13.931-4.919 29.265 4.835 41.562 50.454 61.289 77.947 138.652 77.947 217.926v366.091c0 158.78 131.334 288.033 292.669 288.033 99.42 0 191.339-49.215 245.766-131.074 6.658-10.245 20.926-13.347 30.963-6.55 10.338 6.58 13.449 20.576 6.551 30.424-62.319 94.827-168.55 151.594-283.281 151.594zM827.241 269.478v86.263h43.825c24.087 0 43.825-19.426 43.825-43.132 0-24.277-19.676-43.132-43.825-43.132h-43.825zM453.547 649.455c-12.471 0-22.234-9.609-22.234-21.882v-27.772c0-12.273 9.762-21.882 22.234-21.882 12.469 0 22.234 9.609 22.234 21.882v27.772c0 12.273-9.764 21.882-22.234 21.882zM666.475 649.455c-11.616 0-22.234-9.404-22.234-21.882v-27.772c0-12.273 9.764-21.882 22.234-21.882s22.234 9.609 22.234 21.882v27.772c0 12.273-9.764 21.882-22.234 21.882zM551.834 534.315c-8.704 8.565-23.179 8.593-31.887-0.77-8.561-8.576-8.542-22.709 0.913-31.234 11.341-11.076 27.473-15.913 42.357-15.913 15.095 0 30.479 4.956 42.317 15.876l0.247 0.23 0.226 0.25c7.684 8.51 7.714 22.411-0.943 30.929-8.271 8.139-22.645 9.589-31.746 0.631-2.033-2.001-5.965-3.524-10.743-3.524s-8.708 1.523-10.741 3.524zM346.441 400.766c-12.471 0-22.234-9.609-22.234-21.882s9.762-21.882 22.234-21.882h147.511c24.085 0 43.825-19.426 43.825-43.13 0-23.945-19.977-44.395-43.825-44.395h-147.511c-12.471 0-22.234-9.609-22.234-21.882s9.762-21.882 22.234-21.882h147.511c49.026 0 88.932 39.275 88.932 87.526s-39.906 87.524-88.932 87.524h-147.511z" />
<glyph unicode="&#xe91c;" glyph-name="google-plus" d="M980.992 819.712h-83.968v128h-149.504v-126.976h-126.976v-58.368c-4.096 18.432-11.264 35.84-19.456 51.2l9.216 10.24 61.44 64.512 68.608 71.68h-376.832c-162.816 0-301.056-118.784-301.056-260.096 0-138.24 89.088-237.568 221.184-250.88 0-4.096 0-7.168 0-11.264 0-11.264 1.024-21.504 4.096-30.72-173.056-12.288-287.744-139.264-287.744-258.048 0-125.952 140.288-212.992 339.968-212.992 211.968 0 338.944 128 338.944 251.904 0 102.4-28.672 155.648-124.928 227.328l-6.144 4.096c-12.288 9.216-49.152 36.864-58.368 51.2 0 10.24 5.12 17.408 38.912 44.032 56.32 44.032 89.088 97.28 96.256 155.648h120.832v-126.976h149.504v126.976h126.976v149.504h-40.96zM501.76 548.352c-47.104-36.864-55.296-51.2-55.296-82.944 0-26.624 55.296-65.536 80.896-84.992 90.112-67.584 107.52-109.568 107.52-192.512 0-104.448-112.64-207.872-295.936-207.872-160.768 0-295.936 65.536-295.936 169.984 0 106.496 112.64 217.088 273.408 217.088 17.408 0 33.792 0 50.176 0-21.504 21.504-39.936 39.936-39.936 71.68 0 19.456 6.144 37.888 14.336 54.272-9.216-1.024-17.408-1.024-26.624-1.024-132.096 0-208.896 93.184-208.896 208.896 0 113.664 116.736 217.088 257.024 217.088 72.704 0 276.48 0 276.48 0l-61.44-64.512h-72.704c51.2-29.696 78.848-90.112 78.848-156.672 0-62.464-33.792-111.616-81.92-148.48zM980.992 713.216h-128v-128h-63.488v128h-128v63.488h128v126.976h63.488v-128h128v-62.464zM321.536 871.936c-1.024 0-2.048 0-3.072 0-72.704 0-120.832-73.728-108.544-171.008 13.312-98.304 83.968-165.888 157.696-167.936 1.024 0 2.048 0 4.096 0 71.68 0 113.664 62.464 100.352 158.72-12.288 97.28-75.776 178.176-150.528 180.224zM412.672 592.384c-10.24-11.264-23.552-16.384-40.96-16.384h-2.048c-57.344 2.048-107.52 58.368-116.736 131.072-5.12 40.96 3.072 79.872 22.528 102.4 11.264 13.312 25.6 20.48 43.008 20.48h2.048c50.176-1.024 99.328-65.536 109.568-143.36 5.12-40.96-1.024-75.776-17.408-94.208zM353.28 332.288c-1.024 0-2.048 0-3.072 0-109.568 0-201.728-70.656-201.728-152.576 0-83.968 79.872-154.624 191.488-154.624 155.648 0 210.944 65.536 210.944 150.528 0 10.24-1.024 20.48-3.072 29.696-12.288 48.128-60.416 73.728-120.832 115.712-24.576 7.168-48.128 11.264-73.728 11.264zM503.808 195.072c1.024-6.144 2.048-12.288 2.048-19.456 0-26.624 0-107.52-166.912-107.52-82.944 0-148.48 49.152-148.48 111.616 0 57.344 75.776 109.568 158.72 109.568h2.048c18.432 0 36.864-3.072 53.248-7.168 7.168-5.12 13.312-9.216 20.48-13.312 47.104-31.744 72.704-50.176 78.848-73.728z" />
<glyph unicode="&#xe91d;" glyph-name="headephone" d="M859.755 58.626l-13.218-36.137c-9.451-36.649-37.935-62.27-72.506-72.186h-19.543c-27.593 0-48.757 8.847-65.975 26.093-21.391 21.423-30.863 51.983-26.571 84.275l47.552 220.262c9.519 32.557 26.97 53.732 58.458 67.247 30.549 13.111 60.469 9.163 87.757-9.058l1.769-1.18 1.901-0.954c4.393-2.199 12.382-8.666 22.923-24.499l41.357-62.131 19.949 71.921c32.427 116.917 19.287 234.195-38.767 344.021l-0.22 0.416-0.23 0.41c-84.16 149.123-233.713 234-396.256 234-149.417 0-286.174-71.716-370.681-195.414l-0.116-0.171-0.114-0.171c-77.022-115.71-103.687-252.51-64.371-383.763l16.42-54.816 73.944 74.057c26.566 16.732 55.537 20.019 85.096 7.332l1.99-0.855 2.082-0.595c25.722-7.36 43.91-29.847 54.385-65.79l48.060-222.615 0.305-1.071c8.489-29.754 0.269-59.183-21.374-80.858-21.632-21.666-52.572-31.102-85.178-26.436l-0.297 0.043-0.297 0.036c-30.889 3.868-61.93 32.023-72.255 66.955l-12.519 35.906-21.614-0.292c-6.682 0-8.212 0.087-9.402 0.286l-0.031 0.006c-0.383 0.062-1.645 0.269-5.327 2.112-4.913 2.462-10.867 8.194-13.949 13.299l-71.332 208.361c-56.079 157.261-28.363 326.114 67.623 462.010 96.113 130.064 242.309 208.518 404.956 208.518s308.843-78.454 404.956-208.516c95.584-135.337 117.835-303.964 61.751-455.62l-0.145-0.39-71.324-208.343c-3.081-5.105-9.035-10.839-13.948-13.299-3.684-1.843-4.945-2.050-5.327-2.112l-0.032-0.006c-1.188-0.198-2.72-0.286-9.402-0.286h-20.915z" />
<glyph unicode="&#xe91e;" glyph-name="iframe" d="M47.783 447.296l320.761 320.016c7.29 7.273 7.29 19.092-2.084 25.456-8.331 6.364-21.869 5.455-29.158-1.818l-332.217-330.926c-6.249-6.364-7.29-16.365 0-23.637l339.506-356.382c4.164-4.546 10.413-6.364 15.62-6.364s9.374 1.818 13.538 4.546c8.333 6.364 10.415 18.182 3.125 25.455l-329.092 343.654zM1018.396 460.023l-332.218 330.926c-7.29 7.273-20.828 8.182-29.158 1.818-8.333-6.364-9.374-18.183-2.084-25.456l320.762-320.016-328.051-344.563c-7.29-7.273-6.249-19.091 3.125-25.457 4.164-2.726 8.331-4.544 13.538-4.544 6.249 0 11.456 1.818 15.62 6.364l339.507 356.382c6.249 7.273 6.249 17.274-1.041 24.546zM566.415 874.59c-11.456 0.909-21.871-6.364-22.912-16.364l-82.272-838.225c-1.041-9.999 7.29-19.091 18.746-20 1.041 0 1.041 0 2.082 0 10.415 0 19.787 7.273 20.83 16.365l82.272 838.224c2.082 10.91-7.29 19.092-18.746 20.001z" />
<glyph unicode="&#xe91f;" glyph-name="image" d="M55.951 824.874c-30.858 0-55.951-25.092-55.951-55.951v-641.849c0-30.857 25.092-55.949 55.951-55.949h912.099c30.859 0 55.951 25.092 55.951 55.949v641.849c0 30.858-25.092 55.951-55.951 55.951h-912.099zM44.339 768.923c0 6.396 5.216 11.612 11.612 11.612h912.099c6.396 0 11.612-5.216 11.612-11.612v-337.857l-208.503 208.358c-21.216 21.459-58.029 21.363-79.093 0.073l-281.378-281.297-163.14 162.989c-21.216 21.457-58.027 21.37-79.093 0.062l-124.114-124.119v371.792zM723.535 608.26c4.284 4.341 11.731 4.418 16.162-0.079l0.028-0.030 239.938-239.776-0.002-241.299c0-6.396-5.216-11.612-11.612-11.612h-737.463l492.949 492.796zM199.923 490.025c4.283 4.337 11.725 4.422 16.176-0.085l0.023-0.026 163.211-163.059-211.454-211.392h-111.927c-6.396 0-11.612 5.216-11.612 11.612v207.358l155.584 155.593zM427.546 706.639c-58.799 0-106.622-47.823-106.622-106.622s47.823-106.624 106.622-106.624c58.799 0 106.622 47.825 106.622 106.624s-47.821 106.622-106.622 106.622zM365.261 600.017c0 34.336 27.947 62.283 62.285 62.283s62.283-27.947 62.283-62.283c0-34.338-27.945-62.285-62.283-62.285s-62.285 27.947-62.285 62.285z" />
<glyph unicode="&#xe920;" glyph-name="info" d="M656.384 458.24c11.264 0 20.48 9.216 20.48 20.48v122.88c0 11.264-9.216 20.48-20.48 20.48h-288.768c-11.264 0-20.48-9.216-20.48-20.48v-122.88c0-11.264 9.216-20.48 20.48-20.48h65.536v-351.232h-65.536c-11.264 0-20.48-9.216-20.48-20.48v-122.88c0-11.264 9.216-20.48 20.48-20.48h288.768c11.264 0 20.48 9.216 20.48 20.48v122.88c0 11.264-9.216 20.48-20.48 20.48h-60.416v351.232h60.416zM576.512 66.048h60.416v-81.92h-248.832v81.92h65.536c11.264 0 20.48 9.216 20.48 20.48v392.192c0 11.264-9.216 20.48-20.48 20.48h-65.536v81.92h247.808v-81.92h-60.416c-11.264 0-20.48-9.216-20.48-20.48v-392.192c1.024-11.264 10.24-20.48 21.504-20.48zM512 664.064c79.872 0 144.384 64.512 144.384 144.384s-64.512 144.384-144.384 144.384c-79.872 0-144.384-64.512-144.384-144.384s64.512-144.384 144.384-144.384zM512 911.872c57.344 0 103.424-46.080 103.424-103.424s-46.080-103.424-103.424-103.424c-57.344 0-103.424 46.080-103.424 103.424s46.080 103.424 103.424 103.424z" />
<glyph unicode="&#xe921;" glyph-name="info-off" d="M511.998 664.064c79.872 0 144.384 64.512 144.384 144.384s-64.512 144.384-144.384 144.384c-79.872 0-144.384-64.512-144.384-144.384s64.512-144.384 144.384-144.384zM511.998 911.872c57.344 0 103.424-46.080 103.424-103.424s-46.080-103.424-103.424-103.424c-57.344 0-103.424 46.080-103.424 103.424s46.080 103.424 103.424 103.424zM828.414 97.792l-232.448 161.792v198.656h60.416c11.264 0 20.48 9.216 20.48 20.48v122.88c0 11.264-9.216 20.48-20.48 20.48h-288.768c-11.264 0-20.48-9.216-20.48-20.48v-122.88c0-11.264 9.216-20.48 20.48-20.48h65.536v-86.016l-223.232 155.648c-9.216 6.144-22.528 4.096-28.672-5.12s-4.096-22.528 5.12-28.672l246.784-171.008v-215.040h-65.536c-11.264 0-20.48-9.216-20.48-20.48v-122.88c0-11.264 9.216-20.48 20.48-20.48h288.768c11.264 0 20.48 9.216 20.48 20.48v122.88c0 11.264-9.216 20.48-20.48 20.48h-60.416v102.4l209.92-145.408c3.072-2.048 7.168-4.096 11.264-4.096 6.144 0 13.312 3.072 16.384 9.216 7.168 8.192 4.096 20.48-5.12 27.648zM453.63 499.2h-65.536v81.92h247.808v-81.92h-60.416c-11.264 0-20.48-9.216-20.48-20.48v-191.488l-80.896 56.32v135.168c0 11.264-9.216 20.48-20.48 20.48zM576.51 66.048h60.416v-81.92h-248.832v81.92h65.536c11.264 0 20.48 9.216 20.48 20.48v207.872l80.896-56.32v-151.552c1.024-11.264 10.24-20.48 21.504-20.48z" />
<glyph unicode="&#xe922;" glyph-name="instagram" d="M302.080 960c-165.888 0-302.080-136.192-302.080-302.080v-418.816c0-166.912 136.192-303.104 302.080-303.104h418.816c166.912 0 302.080 136.192 302.080 302.080v419.84c1.024 165.888-135.168 302.080-301.056 302.080h-419.84zM302.080 913.92h418.816c141.312 0 256-114.688 256-256v-418.816c0-141.312-114.688-256-256-256h-418.816c-141.312 0-256 114.688-256 256v418.816c0 141.312 114.688 256 256 256zM791.552 773.632c-12.288 0-24.576-5.12-32.768-13.312-9.216-9.216-13.312-20.48-13.312-32.768s5.12-24.576 13.312-32.768c9.216-9.216 20.48-13.312 32.768-13.312s24.576 5.12 32.768 13.312c9.216 9.216 13.312 20.48 13.312 32.768s-5.12 24.576-13.312 32.768c-9.216 8.192-20.48 13.312-32.768 13.312zM512 704c-141.312 0-256-114.688-256-256s114.688-256 256-256c141.312 0 256 114.688 256 256s-114.688 256-256 256zM512 657.92c115.712 0 209.92-93.184 209.92-209.92s-94.208-209.92-209.92-209.92c-115.712 0-209.92 94.208-209.92 209.92s94.208 209.92 209.92 209.92z" />
<glyph unicode="&#xe923;" glyph-name="left" d="M234.667 448c0 5.099 2.116 10.199 6.351 14.278l512.326 491.602c8.467 8.159 21.169 8.159 29.638 0 8.467-8.159 8.467-20.398 0-28.558l-497.506-477.323 497.506-477.323c8.467-8.16 8.467-20.399 0-28.559-8.469-8.158-21.171-8.158-29.638 0l-512.326 491.603c-4.235 4.079-6.351 9.18-6.351 14.278z" />
<glyph unicode="&#xe924;" glyph-name="left-arrow" d="M999.422 468.48h-926.72l352.256 352.256c4.096 4.096 6.144 9.216 6.144 14.336s-2.048 11.264-6.144 14.336c-8.192 8.192-21.504 8.192-29.696 0l-385.024-387.072c-4.096-4.096-6.144-9.216-6.144-14.336 0-1.024 0-2.048 0-3.072s0-2.048 1.024-3.072c0 0 0 0 0-1.024s1.024-1.024 1.024-2.048c1.024-2.048 2.048-4.096 3.072-6.144l387.072-387.072c4.096-3.072 9.216-5.12 14.336-5.12 6.144 0 11.264 2.048 14.336 5.12 4.096 4.096 6.144 9.216 6.144 14.336s-2.048 11.264-6.144 14.336l-352.256 353.28h926.72c11.264 0 20.48 9.216 20.48 20.48s-9.216 20.48-20.48 20.48z" />
<glyph unicode="&#xe925;" glyph-name="link" d="M956.416 892.416c-90.112 90.112-237.568 90.112-327.68 0l-178.176-178.176c-7.168-7.168-7.168-19.456 0-27.648 7.168-7.168 19.456-7.168 27.648 0l177.152 178.176c35.84 35.84 84.992 56.32 136.192 56.32 52.224 0 100.352-20.48 136.192-56.32s56.32-84.992 56.32-136.192c0-51.2-20.48-100.352-56.32-136.192l-231.424-233.472c-75.776-75.776-197.632-75.776-273.408 0-7.168 7.168-19.456 7.168-27.648 0-7.168-7.168-7.168-19.456 0-27.648 45.056-45.056 104.448-67.584 163.84-67.584s118.784 22.528 163.84 67.584l232.448 232.448c44.032 44.032 67.584 102.4 67.584 163.84s-23.552 120.832-66.56 164.864zM519.168 181.76l-150.528-150.528c-35.84-35.84-84.992-56.32-136.192-56.32s-100.352 20.48-136.192 56.32c-75.776 75.776-75.776 197.632 0 273.408l219.136 219.136c75.776 75.776 197.632 75.776 273.408 0 7.168-7.168 19.456-7.168 27.648 0 7.168 7.168 7.168 19.456 0 27.648-90.112 90.112-237.568 90.112-327.68 0l-221.184-220.16c-44.032-44.032-67.584-102.4-67.584-163.84 0-62.464 23.552-120.832 67.584-163.84 44.032-44.032 102.4-67.584 163.84-67.584 62.464 0 120.832 23.552 163.84 67.584l150.528 150.528c7.168 7.168 7.168 19.456 0 27.648-7.168 7.168-19.456 7.168-26.624 0z" />
<glyph unicode="&#xe926;" glyph-name="linkedin" d="M63.399 897.591c25.008 25.427 58.328 38.942 94.838 38.942 34.905 0 68.237-13.523 93.244-40.604l0.047-0.047c24.817-25.267 39.876-59.096 38.249-94.814v-0.095c-0.038-37.224-15.042-71.028-39.932-96.331-24.932-25.35-56.605-38.944-89.991-38.944l-3.081 0.004-0.105-0.006c-33.501-1.651-68.397 13.658-93.268 38.946-24.92 25.338-39.93 59.194-39.93 96.475 0 35.576 13.35 69.449 39.93 96.474zM158.237 895.634c-26.518 0-49.726-9.5-66.698-26.755-18.643-18.955-27.915-42.563-27.915-67.763 0-25.308 9.337-50.443 27.791-67.643l0.16-0.149c16.97-17.233 41.772-26.726 65.046-26.726h0.121l0.121-0.006c24.532-1.559 47.714 9.348 64.84 26.763l0.154 0.156c18.432 17.199 27.761 42.314 27.761 67.607 0 25.201-9.271 48.809-27.915 67.763-17.018 17.304-40.249 26.755-63.467 26.755zM582.554 594.827c39.371 38.714 95.317 62.5 153.982 62.5h33.922c129.805 0 230.076-103.654 230.078-237.246v-423.738c0-9.534-4.649-18.722-11.258-25.444-6.613-6.722-15.635-11.43-24.975-11.43h-161.536c-9.34 0-18.362 4.708-24.973 11.433-6.611 6.72-11.258 15.908-11.258 25.442v353.116c0 29.086-6.374 50.671-21.303 64.335l-0.079 0.070-0.073 0.075c-16.994 17.278-40.213 26.754-65.082 26.754-47.674 0-84.922-40.649-84.922-92.877v-354.756c0-10.507-5.193-18.976-12.175-24.702-6.929-5.681-15.863-8.887-24.058-8.887h-177.69c-8.192 0-17.126 3.206-24.055 8.887-6.982 5.726-12.177 14.195-12.177 24.702v612.612c0 10.46 5.148 19.302 12.062 25.425 6.876 6.086 15.838 9.807 24.171 9.807h161.536c9.34 0 18.362-4.708 24.975-11.433 6.609-6.722 11.258-15.91 11.258-25.442v-12.772l3.629 3.569zM738.15 616.427c-58.569 0-113.894-28.99-145.431-73.877l-0.19-0.271-52.147-53.020v110.746h-153.687v-599.635h169.843v347.445c0 74.404 54.961 132.079 124.983 133.775l0.092 0.002h0.026c34.912-0.006 68.213-13.542 93.199-38.944 6.528-6.637 11.987-14.016 16.439-22.163 8.201-15.010 12.975-32.623 14.688-52.992 0.486-5.788 0.725-11.797 0.725-18.033l1.596-349.090h152.092v419.71c0 109.538-82.317 196.348-188.305 196.348h-33.922zM39.621 587.605c0 30.091 22.706 53.297 50.77 53.297h130.844c27.979 0 52.386-24.762 52.386-53.297v-576.482c0-26.978-24.491-51.657-52.386-51.657h-129.229c-27.979 0-52.385 24.764-52.385 53.297v574.842zM90.391 600.002c-2.683 0-5.303-1.361-7.344-3.757-2.047-2.402-3.27-5.581-3.27-8.64v-574.842c0-2.78 1.406-5.909 3.886-8.431 2.478-2.519 5.572-3.966 8.343-3.966h129.229c3.038 0 6.182 1.254 8.548 3.339 2.359 2.080 3.68 4.73 3.68 7.418v576.482c0 2.78-1.406 5.909-3.885 8.431-2.477 2.519-5.572 3.966-8.343 3.966h-130.844z" />
<glyph unicode="&#xe927;" glyph-name="loop" d="M25.6 468.48c0-11.264 9.216-20.48 20.48-20.48s20.48 9.216 20.48 20.48v125.952c0 1.024 0 1.024 0 2.048 0 0-4.096 50.176 25.6 81.92 18.432 19.456 46.080 29.696 82.944 29.696h746.496l-161.792-162.816c-8.192-8.192-8.192-20.48 0-28.672 4.096-4.096 9.216-6.144 14.336-6.144s10.24 2.048 14.336 6.144l196.608 197.632c8.192 8.192 8.192 20.48 0 28.672l-196.608 206.848c-8.192 8.192-20.48 8.192-28.672 1.024-8.192-8.192-8.192-20.48-1.024-28.672l163.84-172.032h-747.52c-49.152 0-87.040-14.336-113.664-44.032-38.912-43.008-36.864-103.424-35.84-112.64v-124.928zM991.232 303.616v124.928c0 11.264-9.216 20.48-20.48 20.48s-20.48-9.216-20.48-20.48v-125.952c0-1.024 0-1.024 0-2.048 0 0 4.096-50.176-25.6-81.92-18.432-19.456-46.080-29.696-82.944-29.696h-746.496l161.792 162.816c8.192 8.192 8.192 20.48 0 28.672s-20.48 8.192-28.672 0l-196.608-197.632c-8.192-8.192-8.192-20.48 0-28.672l196.608-206.848c4.096-4.096 9.216-6.144 14.336-6.144s10.24 2.048 14.336 6.144c8.192 8.192 8.192 20.48 1.024 28.672l-163.84 172.032h747.52c49.152 0 87.040 14.336 113.664 44.032 38.912 43.008 35.84 102.4 35.84 111.616z" />
<glyph unicode="&#xe928;" glyph-name="love" d="M511.998 676.378l-36.418 59.665c-40.61 66.531-114.057 110.635-198.078 110.635-128.090 0-232.788-103.881-232.788-232.789 0-69.958 31.027-132.205 79.638-174.737l1.069-0.937 386.573-386.573 386.912 387.753c49.333 42.411 80.378 105.519 80.378 174.494 0 128.092-103.881 232.789-232.789 232.789-84.019 0-157.466-44.103-198.076-110.635l-36.42-59.665zM537.598 16.896c-7.168-6.144-16.384-10.24-25.6-10.24-10.24 0-18.432 3.072-25.6 10.24l-390.143 390.144c-57.344 50.176-94.208 123.904-94.208 206.848 0 152.576 123.904 275.456 275.455 275.456 82.903 0 157.244-36.379 207.548-94.253 9.967-11.468 18.991-23.779 26.948-36.819 7.959 13.040 16.983 25.351 26.95 36.819 50.304 57.874 124.644 94.253 207.546 94.253 152.576 0 275.456-123.904 275.456-275.456 0-81.92-36.864-156.672-95.232-206.848l-389.12-390.144z" />
<glyph unicode="&#xe929;" glyph-name="mail" d="M933.886 820.736h-843.776c-47.104 0-86.016-38.912-86.016-86.016v-552.96c0-47.104 38.912-86.016 86.016-86.016h843.776c47.104 0 86.016 38.912 86.016 86.016v552.96c0 47.104-38.912 86.016-86.016 86.016zM977.918 734.72v-552.96c0-23.552-19.456-44.032-44.032-44.032h-843.776c-23.552 0-44.032 19.456-44.032 44.032v552.96c0 3.072 0 7.168 1.024 10.24l324.608-282.624-177.152-166.912c-4.096-4.096-6.144-9.216-7.168-14.336 0-6.144 2.048-11.264 6.144-15.36s9.216-7.168 15.36-7.168c5.12 0 10.24 2.048 14.336 6.144l181.248 169.984 45.056-38.912c16.384-14.336 38.912-22.528 62.464-22.528s46.080 8.192 62.464 22.528l50.176 41.984 184.32-174.080c4.096-4.096 9.216-6.144 14.336-6.144 6.144 0 11.264 2.048 15.36 7.168 4.096 4.096 6.144 9.216 6.144 15.36s-2.048 11.264-7.168 14.336l-181.248 171.008 319.488 278.528c1.024-3.072 2.048-6.144 2.048-9.216zM546.814 426.496c-18.432-16.384-51.2-16.384-69.632 0l-400.384 349.184c4.096 1.024 9.216 2.048 13.312 2.048h843.776c5.12 0 9.216-1.024 13.312-2.048l-400.384-349.184z" />
<glyph unicode="&#xe92a;" glyph-name="maps" d="M513.022-64h-2.048c-34.816 0-59.392 28.672-62.464 31.744-150.528 180.224-311.296 390.144-311.296 603.136 0 215.040 167.936 389.12 374.784 389.12s374.784-174.080 374.784-389.12c0-212.992-160.768-422.912-311.296-603.136 0 0-26.624-31.744-62.464-31.744zM511.998 920.064c-184.32 0-334.848-156.672-334.848-349.184 0-199.68 155.648-402.432 302.080-577.536 4.096-5.12 18.432-17.408 31.744-17.408h2.048c13.312 0 27.648 13.312 31.744 17.408 146.432 175.104 302.080 377.856 302.080 577.536 0 192.512-150.528 349.184-334.848 349.184zM511.998 347.648c-134.144 0-243.712 109.568-243.712 243.712s109.568 242.688 243.712 242.688c134.144 0 243.712-109.568 243.712-243.712s-109.568-242.688-243.712-242.688zM511.998 795.136c-112.64 0-203.776-91.136-203.776-203.776s91.136-203.776 203.776-203.776c112.64 0 203.776 91.136 203.776 203.776s-91.136 203.776-203.776 203.776z" />
<glyph unicode="&#xe92b;" glyph-name="menu-icon" d="M20.271 841.584c0 54.101 44.048 98.149 98.149 98.149h235.167c54.101 0 98.15-44.048 98.15-98.149v-235.167c0-54.101-44.049-98.15-98.15-98.15h-235.167c-54.101 0-98.149 44.049-98.149 98.15v235.167zM118.42 900.267c-32.375 0-58.682-26.308-58.682-58.683v-235.167c0-32.375 26.308-58.684 58.682-58.684h235.167c32.375 0 58.684 26.308 58.684 58.684v235.167c0 32.375-26.308 58.683-58.684 58.683h-235.167zM572.271 840c0 54.975 44.757 99.733 99.733 99.733h232c54.974 0 99.733-44.758 99.733-99.733v-232c0-54.974-44.759-99.733-99.733-99.733h-232c-54.976 0-99.733 44.759-99.733 99.733v232zM672.004 900.267c-33.25 0-60.267-27.018-60.267-60.267v-232c0-33.248 27.017-60.267 60.267-60.267h232c33.248 0 60.267 27.019 60.267 60.267v232c0 33.249-27.019 60.267-60.267 60.267h-232zM20.271 289.585c0 54.101 44.048 98.148 98.149 98.148h235.167c54.101 0 98.15-44.047 98.15-98.148v-235.168c0-54.101-44.049-98.15-98.15-98.15h-235.167c-54.101 0-98.149 44.049-98.149 98.15v235.168zM118.42 348.267c-32.375 0-58.682-26.308-58.682-58.682v-235.168c0-32.375 26.308-58.684 58.682-58.684h235.167c32.375 0 58.684 26.308 58.684 58.684v235.168c0 32.373-26.308 58.682-58.684 58.682h-235.167zM572.271 288c0 54.976 44.757 99.733 99.733 99.733h232c54.974 0 99.733-44.757 99.733-99.733v-232c0-54.974-44.759-99.733-99.733-99.733h-232c-54.976 0-99.733 44.759-99.733 99.733v232zM672.004 348.267c-33.25 0-60.267-27.017-60.267-60.267v-232c0-33.248 27.017-60.267 60.267-60.267h232c33.248 0 60.267 27.019 60.267 60.267v232c0 33.25-27.019 60.267-60.267 60.267h-232z" />
<glyph unicode="&#xe92c;" glyph-name="minus" d="M21.619 469.333c-11.651 0-21.619-9.969-21.619-21.619s9.969-21.619 21.619-21.619h980.761c11.65 0 21.619 9.969 21.619 21.619s-9.969 21.619-21.619 21.619h-980.761z" />
<glyph unicode="&#xe92d;" glyph-name="min-width" d="M999.424 458.24h-197.632l154.624 178.176c7.168 8.192 6.144 21.504-2.048 28.672s-21.504 6.144-28.672-2.048l-178.176-204.8v385.024c0 11.264-9.216 20.48-20.48 20.48s-20.48-9.216-20.48-20.48v-385.024h-345.088v385.024c0 11.264-9.216 20.48-20.48 20.48s-20.48-9.216-20.48-20.48v-385.024l-178.175 204.8c-7.168 8.192-20.48 9.216-28.672 2.048s-9.216-20.48-2.048-28.672l154.623-178.176h-237.567c-11.264 0-20.48-9.216-20.48-20.48s9.216-20.48 20.48-20.48h239.615l-156.671-178.176c-7.168-8.192-6.144-21.504 2.048-28.672 4.096-3.072 9.216-5.12 13.312-5.12 6.144 0 11.264 2.048 15.36 7.168l178.175 202.752v-388.096c0-11.264 9.216-20.48 20.48-20.48s20.48 9.216 20.48 20.48v390.144h345.088v-391.168c0-11.264 9.216-20.48 20.48-20.48s20.48 9.216 20.48 20.48v388.096l178.176-202.752c4.096-5.12 9.216-7.168 15.36-7.168 5.12 0 9.216 2.048 13.312 5.12 8.192 7.168 9.216 20.48 2.048 28.672l-156.672 179.2h199.68c11.264 0 20.48 9.216 20.48 20.48s-9.216 20.48-20.48 20.48z" />
<glyph unicode="&#xe92e;" glyph-name="music" d="M975.872 950.784c-3.072 4.096-10.24 5.12-15.36 5.12l-571.392-73.728c-10.24-1.024-17.408-9.216-17.408-19.456v-653.312c-34.816 40.96-89.088 64.512-145.408 64.512-102.399 0-185.343-74.752-185.343-167.936 0-92.16 82.944-166.912 185.343-166.912s185.344 74.752 185.344 167.936c0 4.096 0 8.192-1.024 12.288v1.024c0 1.024 1.024 1.024 1.024 2.048v534.528l531.456 68.608v-331.776c-34.816 40.96-89.088 64.512-145.408 64.512-102.4 0-185.344-74.752-185.344-167.936 0-92.16 82.944-167.936 185.344-167.936 100.352 0 183.296 73.728 185.344 164.864v649.216c0 5.12-2.048 10.24-7.168 14.336zM943.104 913.92v-149.504l-531.456-67.584v148.48l531.456 68.608zM371.712 105.984c0-70.656-65.536-126.976-145.408-126.976s-145.407 57.344-145.407 126.976c0 69.632 65.536 126.976 145.407 126.976s145.408-56.32 145.408-126.976zM943.104 291.328c0-70.656-65.536-126.976-145.408-126.976s-145.408 57.344-145.408 126.976c0 69.632 65.536 126.976 145.408 126.976s145.408-57.344 145.408-126.976z" />
<glyph unicode="&#xe92f;" glyph-name="next" d="M780.284 448c0 5.12-2.048 10.24-6.144 14.336l-495.616 493.568c-8.192 8.192-20.48 8.192-28.672 0s-8.192-20.48 0-28.672l481.28-479.232-481.28-479.232c-8.192-8.192-8.192-20.48 0-28.672s20.48-8.192 28.672 0l495.616 493.568c4.096 4.096 6.144 9.216 6.144 14.336z" />
<glyph unicode="&#xe930;" glyph-name="normalscreen" d="M1005.57 314.88h-343.040c-11.264 0-20.48-9.216-20.48-20.48v-333.824c0-11.264 9.216-20.48 20.48-20.48s20.48 9.216 20.48 20.48v313.344h322.56c11.264 0 20.48 9.216 20.48 20.48s-9.216 20.48-20.48 20.48zM361.474 314.88h-343.041c-11.264 0-20.48-9.216-20.48-20.48s9.216-20.48 20.48-20.48h322.561v-313.344c0-11.264 9.216-20.48 20.48-20.48s20.48 9.216 20.48 20.48v333.824c0 11.264-9.216 20.48-20.48 20.48zM662.53 581.12h343.040c11.264 0 20.48 9.216 20.48 20.48s-9.216 20.48-20.48 20.48h-322.56v313.344c0 11.264-9.216 20.48-20.48 20.48s-20.48-9.216-20.48-20.48v-333.824c0-11.264 9.216-20.48 20.48-20.48zM361.474 955.904c-11.264 0-20.48-9.216-20.48-20.48v-313.344h-322.561c-11.264 0-20.48-9.216-20.48-20.48s9.216-20.48 20.48-20.48h343.041c11.264 0 20.48 9.216 20.48 20.48v333.824c0 11.264-9.216 20.48-20.48 20.48z" />
<glyph unicode="&#xe931;" glyph-name="pause" d="M324.267 913.067c11.78 0 21.333-9.551 21.333-21.333v-887.467c0-11.782-9.553-21.333-21.333-21.333-11.782 0-21.333 9.551-21.333 21.333v887.467c0 11.782 9.551 21.333 21.333 21.333zM708.267 913.067c11.78 0 21.333-9.551 21.333-21.333v-887.467c0-11.782-9.553-21.333-21.333-21.333-11.782 0-21.333 9.551-21.333 21.333v887.467c0 11.782 9.551 21.333 21.333 21.333z" />
<glyph unicode="&#xe932;" glyph-name="phone" d="M664.576 955.904h-305.152c-91.136 0-165.888-74.752-165.888-165.888v-684.032c0-91.136 74.752-165.888 165.888-165.888h305.152c91.136 0 165.888 74.752 165.888 165.888v684.032c0 91.136-74.752 165.888-165.888 165.888zM359.424 914.944h305.152c68.608 0 124.928-56.32 124.928-124.928v-528.384h-555.008v528.384c0 68.608 56.32 124.928 124.928 124.928zM664.576-18.944h-305.152c-68.608 0-124.928 56.32-124.928 124.928v114.688h553.984v-114.688c1.024-68.608-55.296-124.928-123.904-124.928zM519.168 182.784c-50.176 0-91.136-40.96-91.136-91.136s40.96-91.136 91.136-91.136c50.176 0 91.136 40.96 91.136 91.136s-41.984 91.136-91.136 91.136zM519.168 41.472c-27.648 0-50.176 22.528-50.176 50.176s22.528 50.176 50.176 50.176c27.648 0 50.176-22.528 50.176-50.176-1.024-27.648-23.552-50.176-50.176-50.176zM396.288 800.256h244.736c11.264 0 20.48 9.216 20.48 20.48s-9.216 20.48-20.48 20.48h-244.736c-11.264 0-20.48-9.216-20.48-20.48s9.216-20.48 20.48-20.48z" />
<glyph unicode="&#xe933;" glyph-name="phone-blooked" d="M819.2 833.422v30.559c0 22.066-8.766 43.228-24.369 58.831-15.605 15.603-36.764 24.369-58.831 24.369h-448c-22.067 0-43.23-8.766-58.831-24.369-15.603-15.603-24.369-36.765-24.369-58.831v-631.307l38.4 37.549v593.758c0 11.882 4.719 23.277 13.12 31.678s19.797 13.122 31.68 13.122h78.080v-60.8c0-5.092 2.022-9.976 5.623-13.576s8.486-5.624 13.577-5.624h253.44c5.090 0 9.975 2.023 13.574 5.624 3.601 3.6 5.626 8.484 5.626 13.576v60.8h78.080c11.881 0 23.277-4.72 31.678-13.122 8.399-8.402 13.122-19.796 13.122-31.678v-68.105l38.4 37.546zM819.2 773.749l-38.4-37.546v-71.61l38.4 37.547v71.609zM819.2 642.468l-38.4-37.547v-572.939c0-11.883-4.721-23.279-13.122-31.68-8.401-8.403-19.797-13.12-31.678-13.12h-448c-11.883 0-23.277 4.717-31.68 13.12-8.401 8.401-13.12 19.797-13.12 31.68v47.285l-38.4-37.547v-9.739c0-22.067 8.764-43.228 24.369-58.833 15.603-15.601 36.764-24.367 58.831-24.367h448c22.067 0 43.226 8.766 58.831 24.367 15.601 15.605 24.369 36.766 24.369 58.833v610.485zM204.8 101.393l38.4 37.549v71.607l-38.4-37.549v-71.607zM404.48 908.781h215.040v-41.6h-215.040v41.6zM536.382 556.877v61.803h-48.762v-109.481l48.762 47.678zM412.516 435.763l-29.489 29.562-34.622-34.622 29.161-29.111 34.95 34.172zM407.767 371.445l34.884 34.114 36.166-36.25-34.816-34.042-36.235 36.177zM474.202 305.122l15.778-15.75 4.71-4.956c2.266-2.281 4.962-4.098 7.936-5.335 2.97-1.235 6.159-1.875 9.376-1.875s6.404 0.64 9.374 1.875c2.929 1.222 5.587 2.995 7.825 5.222l5.15 5.41 141.246 140.99-34.622 34.622-104.595-104.841v5.438l-62.178-60.8zM536.382 497.203v-71.607l-48.762-47.678v71.607l48.762 47.678zM24.771-3.021l959.999 938.667 35.795-36.608-960-938.667-35.795 36.608z" />
<glyph unicode="&#xe934;" glyph-name="phone-unblooked" d="M229.169 922.812c15.603 15.603 36.764 24.369 58.831 24.369h448c22.067 0 43.226-8.766 58.831-24.369 15.601-15.603 24.369-36.765 24.369-58.831v-831.998c0-22.067-8.766-43.228-24.369-58.833-15.605-15.601-36.764-24.367-58.831-24.367h-448c-22.067 0-43.23 8.766-58.831 24.367-15.603 15.605-24.369 36.766-24.369 58.833v831.998c0 22.066 8.764 43.228 24.369 58.831zM288 908.781c-11.883 0-23.277-4.72-31.68-13.122-8.401-8.402-13.12-19.796-13.12-31.678v-831.998c0-11.883 4.719-23.279 13.12-31.68 8.403-8.403 19.797-13.12 31.68-13.12h448c11.881 0 23.277 4.717 31.678 13.12 8.399 8.401 13.122 19.797 13.122 31.68v831.998c0 11.882-4.721 23.277-13.122 31.678s-19.797 13.122-31.678 13.122h-78.080v-60.8c0-5.092-2.022-9.976-5.626-13.576-3.599-3.601-8.484-5.624-13.574-5.624h-253.44c-5.092 0-9.978 2.023-13.577 5.624-3.601 3.601-5.623 8.484-5.623 13.576v60.8h-78.080zM619.52 908.781h-215.040v-41.6h215.040v41.6zM383.023 459.287l108.864-109.12v264.245h40.228v-264.245l108.864 109.12 28.58-28.582-138.223-137.971-5.182-5.444c-1.835-1.815-4.013-3.266-6.413-4.269-2.458-1.022-5.088-1.549-7.74-1.549s-5.286 0.529-7.74 1.549c-2.441 1.015-4.659 2.507-6.528 4.386l-0.079 0.081-0.030 0.030-4.553 4.796-138.63 138.391 28.58 28.582z" />
<glyph unicode="&#xe935;" glyph-name="phone-unblooked-1" d="M819.2 833.422v30.559c0 22.066-8.766 43.228-24.369 58.831-15.605 15.603-36.764 24.369-58.831 24.369h-448c-22.067 0-43.23-8.766-58.831-24.369-15.603-15.603-24.369-36.765-24.369-58.831v-631.307l38.4 37.549v593.758c0 11.882 4.719 23.277 13.12 31.678s19.797 13.122 31.68 13.122h78.080v-60.8c0-5.092 2.022-9.976 5.623-13.576s8.486-5.624 13.577-5.624h253.44c5.090 0 9.975 2.023 13.574 5.624 3.601 3.6 5.626 8.484 5.626 13.576v60.8h78.080c11.881 0 23.277-4.72 31.678-13.122 8.399-8.402 13.122-19.796 13.122-31.678v-68.105l38.4 37.546zM819.2 773.749l-38.4-37.546v-71.61l38.4 37.547v71.609zM819.2 642.468l-38.4-37.547v-572.939c0-11.883-4.721-23.279-13.122-31.68-8.401-8.403-19.797-13.12-31.678-13.12h-448c-11.883 0-23.277 4.717-31.68 13.12-8.401 8.401-13.12 19.797-13.12 31.68v47.285l-38.4-37.547v-9.739c0-22.067 8.764-43.228 24.369-58.833 15.603-15.601 36.764-24.367 58.831-24.367h448c22.067 0 43.226 8.766 58.831 24.367 15.601 15.605 24.369 36.766 24.369 58.833v610.485zM204.8 101.393l38.4 37.549v71.607l-38.4-37.549v-71.607zM404.48 908.781h215.040v-41.6h-215.040v41.6zM536.382 556.877v61.803h-48.762v-109.481l48.762 47.678zM412.516 435.763l-29.489 29.562-34.622-34.622 29.161-29.111 34.95 34.172zM407.767 371.445l34.884 34.114 36.166-36.25-34.816-34.042-36.235 36.177zM474.202 305.122l15.778-15.75 4.71-4.956c2.266-2.281 4.962-4.098 7.936-5.335 2.97-1.235 6.159-1.875 9.376-1.875s6.404 0.64 9.374 1.875c2.929 1.222 5.587 2.995 7.825 5.222l5.15 5.41 141.246 140.99-34.622 34.622-104.595-104.841v5.438l-62.178-60.8zM536.382 497.203v-71.607l-48.762-47.678v71.607l48.762 47.678zM24.771-3.021l959.999 938.667 35.795-36.608-960-938.667-35.795 36.608z" />
<glyph unicode="&#xe936;" glyph-name="photo" d="M512.021 665.254c-138.944 0-251.974-113.050-251.974-252.038 0-138.972 113.033-252.021 251.974-252.021 138.906 0 251.913 113.071 251.917 252.021 0 138.97-113.011 252.038-251.917 252.038zM305.609 413.233c0 113.852 92.599 206.466 206.413 206.466 113.771 0 206.351-92.612 206.355-206.466 0-113.826-92.563-206.443-206.355-206.443-113.809 0-206.413 92.597-206.413 206.443zM877.892 649.434c-21.751 0-39.345-17.643-39.345-39.358 0-21.737 17.591-39.356 39.345-39.356 21.73 0 39.324 17.626 39.324 39.358-0.019 21.711-17.613 39.356-39.324 39.356zM351.43 853.333c-29.143 0-54.022-19.881-60.1-47.127l-13.267-44.774h-157.277c-66.615 0-120.786-54.189-120.786-120.826v-477.114c0-66.637 54.171-120.826 120.786-120.826h782.412c66.592 0 120.785 54.189 120.802 120.83v477.111c0 66.637-54.172 120.826-120.785 120.826h-158.005l-12.066 42.921-0.363 1.565c-6.658 27.562-31.785 47.413-60.209 47.413h-321.141zM335.422 794.889c1.696 7.617 8.256 12.884 15.987 12.884h321.146c7.597 0 14.325-5.409 15.983-12.863l22.159-79.057h192.501c41.481 0 75.221-33.749 75.221-75.247v-477.109c0-41.498-33.737-75.249-75.221-75.249h-782.412c-41.481 0-75.223 33.751-75.223 75.249v477.109c0 41.495 33.738 75.247 75.223 75.247h191.248l23.341 78.823 0.047 0.213z" />
<glyph unicode="&#xe937;" glyph-name="pinterest" d="M302.912-64c-14.94 0-27.253 10.645-29.301 25.318l-0.356 2.428c-7.046 48.282-16.141 140.983 2.49 219.614l70.626 299.375c-5.801 14.43-16.806 47.663-16.806 91.102 0 94.146 57.397 167.883 130.669 167.883 58.692 0 98.108-42.882 98.108-106.707 0-36.166-13.76-80.785-28.343-128.026-7.825-25.408-15.94-51.639-21.897-76.762-4.868-20.629-0.913-40.324 11.115-55.531 12.826-16.205 33.276-25.476 56.064-25.476 87.565 0 156.169 121.621 156.169 276.926 0 119.287-81.186 193.382-211.878 193.382-165.483 0-254.803-127.403-254.803-247.27 0-39.857 10.114-70.359 31.857-95.925 13.293-15.829 18.871-28.1 12.604-51.486-1.51-5.692-4.047-15.676-6.423-25.19l-5.067-19.895c-6.758-26.010-32.947-39.305-58.020-29.009-80.831 32.947-129.071 121.024-129.071 235.529-0.007 183.695 158.72 373.722 424.305 373.722 236.89 0 378.432-175.199 378.432-344.572 0-236.309-137.028-407.817-325.811-407.817-47.151 0-94.323 17.54-126.537 44.902-10.206-40.303-24.653-97.122-29.035-113.109-21.984-79.761-80.226-159.659-104.237-190.31-6.889-8.896-15.516-13.094-24.851-13.094zM460.237 697.257c-48.35 0-86.208-54.197-86.208-123.424 0-46.66 15.426-78.895 15.607-79.206l3.469-7.138-1.779-7.804-72.314-306.556c-10.716-45.282-12.738-104.508-6.001-169.374 26.3 36.992 61.090 92.834 76.141 147.456 6.714 24.495 39.102 152.875 39.413 154.189l14.229 56.354 27.029-51.439c15.031-28.612 63.181-58.223 117.756-58.223 165.641 0 281.348 149.41 281.348 363.358 0 147.519-124.911 300.109-333.965 300.109-262.010 0-379.852-192.538-379.852-329.255 0-96.478 36.393-166.976 99.882-193.762l4.691 17.984c2.445 9.737 5.047 20.006 6.603 25.813 1.001 3.755 1.111 5.137 1.135 5.513-0.177-0.29-0.913 1.246-4.755 5.803-28.48 33.523-42.349 74.313-42.349 124.623 0 166.304 128.646 291.728 299.264 291.728 155.725 0 256.341-93.369 256.341-237.844 0-183.221-86.234-321.385-200.627-321.385-36.48 0-69.628 15.403-90.927 42.325-20.651 26.099-27.563 59.268-19.516 93.389 6.289 26.569 14.626 53.534 22.694 79.633 13.559 43.949 26.389 85.453 26.389 114.906-0.055 18.703-5.282 62.227-53.7 62.227z" />
<glyph unicode="&#xe938;" glyph-name="play" d="M157.696-56.832c-3.072 0-6.144 1.024-9.216 2.048-7.168 3.072-11.264 10.24-11.264 18.432v968.704c0 7.168 4.096 14.336 11.264 18.432 7.168 3.072 15.36 3.072 21.504-1.024l708.608-489.472c5.12-4.096 9.216-10.24 9.216-17.408s-3.072-13.312-9.216-16.384l-709.632-479.232c-3.072-2.048-7.168-4.096-11.264-4.096zM178.176 892.416v-889.856l652.288 440.32-652.288 449.536z" />
<glyph unicode="&#xe939;" glyph-name="play-fill" d="M157.699-56.832c-3.072 0-6.144 1.024-9.216 2.048-7.168 3.072-11.264 10.24-11.264 18.432v968.704c0 7.168 4.096 14.336 11.264 18.432 7.168 3.072 15.36 3.072 21.504-1.024l708.607-489.472c5.12-4.096 9.216-10.24 9.216-17.408s-3.072-13.312-9.216-16.384l-709.631-479.232c-3.072-2.048-7.168-4.096-11.264-4.096z" />
<glyph unicode="&#xe93a;" glyph-name="playlist" d="M536.574 453.12c0 4.096-2.048 8.192-4.096 11.264l-496.64 487.424c-5.12 4.096-11.264 5.12-17.408 3.072-5.12-3.072-9.216-8.192-9.216-14.336v-982.016c0-6.144 4.096-12.288 9.216-14.336 2.048-1.024 4.096-1.024 6.144-1.024 4.096 0 8.192 2.048 11.264 4.096l496.64 494.592c2.048 3.072 4.096 7.168 4.096 11.264zM39.933-4.608v908.288l459.776-450.56-459.776-457.728zM1011.71 98.816h-770.048c-4.096 0-8.192-2.048-11.264-5.12l-121.856-126.976c-4.096-4.096-5.12-11.264-3.072-16.384 2.048-6.144 8.192-9.216 14.336-9.216h891.904c8.192 0 15.36 7.168 15.36 15.36v126.976c0 8.192-7.168 15.36-15.36 15.36zM996.35-28.16h-840.704l92.16 96.256h748.544v-96.256zM1011.71 531.968h-439.296c-6.144 0-11.264-3.072-14.336-9.216s-2.048-12.288 2.048-16.384l45.056-53.248-53.248-63.488c-4.096-4.096-5.12-11.264-2.048-16.384 2.048-5.12 8.192-9.216 14.336-9.216h447.488c8.192 0 15.36 7.168 15.36 15.36v137.216c0 8.192-7.168 15.36-15.36 15.36zM596.99 394.752l40.96 48.128c5.12 6.144 5.12 14.336 0 19.456l-31.744 37.888h391.168v-105.472h-400.384zM1011.71 314.88h-546.816c-4.096 0-8.192-2.048-11.264-4.096l-123.904-125.952c-4.096-4.096-5.12-11.264-3.072-16.384 2.048-6.144 8.192-9.216 14.336-9.216h670.72c8.192 0 15.36 7.168 15.36 15.36v124.928c0 8.192-7.168 15.36-15.36 15.36zM996.35 188.928h-618.496l93.184 95.232h525.312v-95.232zM1011.71 954.88h-890.88c-6.144 0-12.288-4.096-14.336-9.216s-1.024-12.288 3.072-16.384l125.952-128c3.072-3.072 7.168-4.096 11.264-4.096h764.928c8.192 0 15.36 7.168 15.36 15.36v126.976c0 8.192-7.168 15.36-15.36 15.36zM996.35 827.904h-743.424l-95.232 96.256h838.656v-96.256zM1011.71 748.032h-664.576c-6.144 0-12.288-4.096-14.336-9.216-2.048-6.144-1.024-12.288 3.072-16.384l125.952-125.952c3.072-3.072 7.168-4.096 11.264-4.096h538.624c8.192 0 15.36 7.168 15.36 15.36v124.928c0 8.192-7.168 15.36-15.36 15.36zM996.35 622.080h-517.12l-95.232 95.232h612.352v-95.232z" />
<glyph unicode="&#xe93b;" glyph-name="playlist-close-sidebar" d="M980.99 258.56v-75.776h-155.648v75.776h155.648zM1021.95 299.52h-237.568v-157.696h237.568v157.696zM980.99 485.888v-75.776h-155.648v75.776h155.648zM1021.95 526.848h-237.568v-157.696h237.568v157.696zM980.99 32.256v-55.296l-155.648 1.024v54.272h155.648zM1021.95 73.216h-237.568v-136.192l237.568-1.024v137.216zM980.99 712.192v-75.776h-155.648v75.776h155.648zM1021.95 753.152h-237.568v-157.696h237.568v157.696zM980.99 919.040v-55.296h-155.648v55.296h155.648zM1021.95 960h-237.568v-137.216h237.568v137.216zM655.358 920.064v-165.888l-23.552 23.552c-8.192 8.192-18.432 11.264-28.672 11.264s-21.504-4.096-28.672-12.288l-216.064-216.064-216.064 216.064c-8.192 8.192-18.432 12.288-28.672 12.288s-20.48-4.096-28.672-11.264l-45.056-44.032v186.368h615.424zM39.934 657.92l207.872-208.896-207.872-207.872v416.768zM655.358 636.416v-372.736l-186.368 186.368 186.368 186.368zM358.398 338.432l216.064-217.088c7.168-8.192 18.432-12.288 28.672-12.288 11.264 0 21.504 4.096 28.672 12.288l23.552 23.552v-168.96h-615.424v190.464l45.056-44.032c8.192-8.192 18.432-11.264 28.672-11.264s21.504 4.096 28.672 12.288l216.064 215.040zM696.318 961.024h-697.344v-1026.048h697.344v1026.048zM358.398 502.272l244.736 245.76 53.248-52.224-244.736-245.76 244.736-245.76-53.248-53.248-244.736 245.76-244.736-245.76-53.248 52.224 244.736 245.76-244.736 246.784 53.248 52.224 244.736-245.76z" />
<glyph unicode="&#xe93c;" glyph-name="playlist-sidebar" d="M980.99 258.56v-75.776h-155.648v75.776h155.648zM1021.95 299.52h-237.568v-157.696h237.568v157.696zM980.99 485.888v-75.776h-155.648v75.776h155.648zM1021.95 526.848h-237.568v-157.696h237.568v157.696zM980.99 32.256v-55.296l-155.648 1.024v54.272h155.648zM1021.95 73.216h-237.568v-136.192l237.568-1.024v137.216zM980.99 712.192v-75.776h-155.648v75.776h155.648zM1021.95 753.152h-237.568v-157.696h237.568v157.696zM980.99 919.040v-55.296h-155.648v55.296h155.648zM1021.95 960h-237.568v-137.216h237.568v137.216zM-1.026 961.024v-1026.048h697.344v1026.048h-697.344zM656.382 204.288l-1.024-59.392v-168.96h-615.424v944.128h615.424v-223.232l1.024-1.024-1.024-1.024v-489.472l1.024-1.024z" />
<glyph unicode="&#xe93d;" glyph-name="plus" d="M512 960c-12.768 0-23.642-10.873-23.642-23.641v-464.717h-464.717c-12.769 0-23.641-10.874-23.641-23.642s10.873-23.642 23.641-23.642h464.717v-464.717c0-12.768 10.874-23.642 23.642-23.642s23.642 10.874 23.642 23.642v464.717h464.717c12.768 0 23.642 10.874 23.642 23.642s-10.874 23.642-23.642 23.642h-464.717v464.717c0 12.769-10.874 23.641-23.642 23.641z" />
<glyph unicode="&#xe93e;" glyph-name="prev" d="M234.667 448c0 5.099 2.116 10.199 6.351 14.278l512.326 491.602c8.467 8.159 21.169 8.159 29.638 0 8.467-8.159 8.467-20.398 0-28.558l-497.506-477.323 497.506-477.323c8.467-8.16 8.467-20.399 0-28.559-8.469-8.158-21.171-8.158-29.638 0l-512.326 491.603c-4.235 4.079-6.351 9.18-6.351 14.278z" />
<glyph unicode="&#xe93f;" glyph-name="projects" d="M5.12 954.88v-1013.76h1013.76v1013.76h-1013.76zM46.080 637.44v276.48h271.36v-277.504h-271.36v1.024zM358.4 637.44v276.48h301.056v-277.504h-301.056v1.024zM358.4 305.664v290.816h301.056v-291.84h-301.056v1.024zM358.4-16.896v281.6h301.056v-282.624h-301.056v1.024zM700.416-16.896v281.6h277.504v-282.624h-277.504v1.024zM700.416 305.664v290.816h277.504v-291.84h-277.504v1.024zM700.416 637.44v276.48h277.504v-277.504h-277.504v1.024zM317.44 264.704v-282.624h-271.36v282.624h271.36zM317.44 596.48v-291.84h-271.36v291.84h271.36z" />
<glyph unicode="&#xe940;" glyph-name="quote" d="M1023.45 717.591l-25.427 98.82c-2.121 4.205-4.239 8.41-10.596 12.615-2.118 2.103-8.476 4.205-16.951 2.103-135.612-39.949-247.915-105.128-326.317-195.539-82.639-90.411-122.899-193.436-122.899-309.077 0-84.102 23.309-153.487 69.926-206.052 46.615-52.563 108.066-77.794 184.348-77.794 65.687 0 120.779 21.026 163.157 65.18 42.381 42.050 63.569 98.82 63.569 166.103 0 44.154-10.594 81.999-31.785 113.538-23.309 31.537-55.091 54.667-93.233 67.281-8.476 2.103-19.070 6.308-36.021 10.513-55.093 16.821-65.687 29.436-67.806 31.539 0 27.332 23.307 58.871 63.567 96.717 44.499 39.949 103.829 73.591 177.993 103.027 6.355 2.101 10.594 10.513 8.476 21.026zM728.915 492.617c0-27.334 27.548-48.361 95.354-69.385 6.357-2.103 12.713-4.207 16.951-6.308 8.476-2.103 14.833-4.205 19.070-6.308 31.785-10.513 55.093-27.332 72.045-50.462 16.951-23.127 25.427-54.667 25.427-90.411 0-56.768-16.951-100.922-50.854-136.666s-78.402-52.565-133.493-52.565c-63.569 0-114.423 21.026-154.684 65.18-38.14 44.154-59.33 105.129-59.33 178.718 0 105.129 38.142 199.744 114.423 281.745 72.043 79.898 169.515 138.769 290.295 174.513l14.831-60.975c-65.687-23.127-122.897-56.768-171.633-98.82-52.975-46.257-78.402-88.307-78.402-128.256zM478.88 816.411c-2.118 4.205-4.237 8.41-10.594 12.615-2.118 2.103-8.476 4.205-16.951 2.103-137.73-39.949-247.916-105.128-328.436-195.539s-122.899-193.436-122.899-309.077c0-84.102 23.308-153.487 69.925-206.052 46.617-52.563 108.066-77.794 184.347-77.794 65.687 0 120.781 21.026 163.159 65.18 42.379 42.050 63.569 98.82 63.569 166.103 0 44.154-10.596 81.999-31.785 113.538-23.309 31.537-55.093 54.667-93.233 67.281-8.476 2.103-19.072 6.308-33.903 10.513h-2.121c-55.091 16.821-65.687 29.436-67.806 31.539 0 27.332 23.309 58.871 63.569 96.717 44.497 39.949 103.827 73.591 175.872 103.027 10.594 4.205 14.833 14.718 12.713 25.231l-25.427 94.615zM209.775 492.617c0-27.334 27.545-48.361 95.353-69.385 6.355-2.103 12.713-4.207 16.951-6.308 8.476-2.103 14.831-4.205 19.070-6.308 31.785-10.513 55.091-27.332 72.045-50.462 16.951-23.127 25.427-54.667 25.427-90.411 0-56.768-16.951-100.922-50.857-136.666-33.903-35.744-78.4-52.565-133.493-52.565-63.567 0-114.422 21.026-154.682 65.18-38.141 44.154-59.33 105.129-59.33 178.718 0 105.129 38.141 199.744 114.423 281.745 72.044 79.898 169.516 138.769 290.294 174.513l14.833-60.975c-65.687-23.127-122.899-56.768-171.633-98.82-52.975-46.257-78.402-88.307-78.402-128.256z" />
<glyph unicode="&#xe941;" glyph-name="quote-thin" d="M1019.904 752.128l-24.576 100.352c-1.024 3.072-2.048 5.12-5.12 6.144-2.048 1.024-5.12 2.048-8.192 1.024-137.216-37.888-247.808-103.424-327.68-192.512-80.896-90.112-121.856-193.536-121.856-307.2 0-83.968 22.528-151.552 66.56-201.728 45.056-51.2 104.448-76.8 178.176-76.8 63.488 0 115.712 20.48 156.672 61.44s61.44 95.232 61.44 159.744c0 41.984-10.24 78.848-30.72 108.544s-50.176 51.2-88.064 63.488c-8.192 2.048-20.48 6.144-35.84 11.264-73.728 23.552-75.776 38.912-75.776 40.96 0 30.72 22.528 66.56 67.584 106.496 46.080 40.96 106.496 76.8 180.224 105.472 6.144 3.072 8.192 8.192 7.168 13.312zM819.2 648.704c-50.176-45.056-74.752-84.992-74.752-121.856 0-21.504 27.648-39.936 89.088-60.416 16.384-5.12 27.648-9.216 35.84-11.264 33.792-11.264 59.392-29.696 76.8-56.32s26.624-58.368 26.624-97.28c0-59.392-18.432-108.544-55.296-145.408s-83.968-55.296-142.336-55.296c-64.512 1.024-119.808 24.576-160.768 70.656s-61.44 109.568-61.44 188.416c0 108.544 38.912 206.848 116.736 293.888 75.776 84.992 179.2 146.432 308.224 183.296l20.48-81.92c-72.704-28.672-133.12-64.512-179.2-106.496zM473.088 852.48c-1.024 3.072-2.048 5.12-5.12 6.144-2.048 1.024-5.12 2.048-8.192 1.024-137.216-37.888-246.784-103.424-327.68-192.512-80.896-90.112-121.856-193.536-121.856-307.2 0-83.968 22.528-151.552 66.56-201.728 45.056-51.2 104.448-76.8 178.176-76.8 63.488 0 115.712 20.48 156.672 61.44s61.44 95.232 61.44 159.744c0 41.984-10.24 78.848-30.72 108.544s-50.176 51.2-88.064 63.488c-8.192 2.048-20.48 6.144-35.84 11.264-72.704 23.552-75.776 38.912-75.776 40.96 0 30.72 22.528 66.56 67.584 106.496 46.080 40.96 106.496 76.8 180.224 105.472 5.12 2.048 7.168 7.168 6.144 12.288l-23.552 101.376zM296.96 648.704c-50.176-45.056-74.752-84.992-74.752-121.856 0-21.504 27.648-39.936 89.088-60.416 16.384-5.12 27.648-9.216 35.84-11.264 33.792-11.264 59.392-29.696 76.8-56.32s26.624-58.368 26.624-97.28c0-59.392-18.432-108.544-55.296-145.408s-83.968-55.296-142.336-55.296c-64.512 1.024-119.808 24.576-160.768 70.656s-61.44 109.568-61.44 188.416c0 108.544 38.912 206.848 116.736 293.888 75.776 84.992 179.2 146.432 308.224 183.296l20.48-81.92c-72.704-28.672-133.12-64.512-179.2-106.496z" />
<glyph unicode="&#xe942;" glyph-name="quote-thiner" d="M501.76 752.128l-23.552 101.376c-1.024 3.072-2.048 7.168-8.192 9.216-4.096 2.048-8.192 2.048-12.288 1.024-135.168-36.864-246.784-102.4-329.728-193.536-81.92-91.136-122.88-195.584-122.88-310.272 0-84.992 22.528-153.6 67.584-204.8 46.080-52.224 107.52-78.848 182.272-78.848 64.512 0 118.784 21.504 160.768 62.464s62.464 96.256 62.464 163.84c0 44.032-10.24 80.896-31.744 111.616s-52.224 53.248-91.136 65.536c-8.192 2.048-19.456 6.144-35.84 11.264-67.584 21.504-71.68 35.84-72.704 35.84 0 29.696 22.528 63.488 65.536 102.4 46.080 40.96 106.496 76.8 179.2 104.448 8.192 3.072 11.264 10.24 10.24 18.432zM488.448 743.936c-72.704-28.672-134.144-64.512-182.272-106.496-46.080-40.96-69.632-77.824-69.632-110.592 0-7.168 10.24-23.552 79.872-46.080 15.36-5.12 27.648-9.216 35.84-11.264 36.864-12.288 65.536-32.768 84.992-61.44s29.696-64.512 29.696-105.472c0-63.488-20.48-116.736-60.416-155.648s-91.136-60.416-152.576-60.416c-71.68 0-130.048 25.6-174.080 74.752-43.008 49.152-65.536 115.712-65.536 198.656 0 112.64 40.96 215.040 120.832 304.128 80.896 90.112 190.464 153.6 325.632 191.488h1.024c1.024 0 2.048-1.024 4.096-1.024 1.024 0 1.024 0 2.048-3.072l23.552-101.376c0-1.024 1.024-5.12-3.072-6.144zM996.352 752.128l-23.552 101.376c-1.024 3.072-2.048 7.168-8.192 9.216-4.096 2.048-8.192 2.048-12.288 1.024-136.192-36.864-246.784-102.4-329.728-193.536-81.92-91.136-122.88-195.584-122.88-310.272 0-84.992 22.528-153.6 67.584-204.8 46.080-52.224 107.52-78.848 182.272-78.848 64.512 0 118.784 21.504 160.768 62.464s62.464 96.256 62.464 163.84c0 44.032-10.24 80.896-31.744 111.616s-52.224 53.248-91.136 65.536c-8.192 2.048-20.48 6.144-35.84 11.264-67.584 21.504-71.68 35.84-72.704 35.84 0 29.696 22.528 63.488 65.536 102.4 46.080 40.96 106.496 76.8 179.2 104.448 8.192 3.072 11.264 10.24 10.24 18.432zM983.040 743.936c-72.704-28.672-134.144-64.512-182.272-106.496-46.080-40.96-69.632-77.824-69.632-110.592 0-7.168 10.24-23.552 79.872-46.080 15.36-5.12 27.648-9.216 35.84-11.264 36.864-12.288 65.536-32.768 84.992-61.44 20.48-28.672 30.72-64.512 30.72-105.472 0-63.488-20.48-116.736-60.416-155.648s-91.136-60.416-152.576-60.416c-71.68 0-130.048 25.6-174.080 74.752-43.008 49.152-65.536 115.712-65.536 198.656 0 112.64 40.96 215.040 120.832 304.128 80.896 90.112 190.464 153.6 325.632 191.488h1.024c1.024 0 2.048-1.024 4.096-1.024 1.024 0 1.024 0 2.048-3.072l23.552-101.376c-1.024-1.024-1.024-5.12-4.096-6.144z" />
<glyph unicode="&#xe943;" glyph-name="reddit" d="M380.928 201.216l-8.192 7.168c-4.096 3.072-8.192 5.12-13.312 6.144s-10.24-1.024-13.312-4.096c-4.096-4.096-7.168-8.192-7.168-13.312s2.048-10.24 5.12-14.336c1.024 0 4.096-3.072 10.24-9.216 6.144-5.12 16.384-11.264 29.696-18.432 13.312-6.144 30.72-12.288 51.2-18.432 20.48-5.12 45.056-8.192 74.752-8.192s55.296 2.048 76.8 8.192c21.504 5.12 38.912 11.264 53.248 18.432 13.312 6.144 23.552 12.288 30.72 18.432 7.168 5.12 10.24 8.192 11.264 9.216 3.072 4.096 5.12 8.192 5.12 13.312s-1.024 9.216-5.12 13.312c-3.072 3.072-8.192 5.12-13.312 5.12s-10.24-1.024-13.312-5.12l-8.192-6.144c-1.024-9.216-9.216-14.336-26.624-15.36s-31.744-6.144-45.056-15.36c-12.288-9.216-33.792-11.264-64.512-7.168s-51.2 6.144-63.488 6.144c-11.264-1.024-25.6 4.096-41.984 14.336s-24.576 15.36-24.576 15.36zM667.648 307.712c20.48 0 36.864 6.144 51.2 20.48 13.312 14.336 20.48 30.72 20.48 51.2s-6.144 36.864-20.48 51.2c-14.336 13.312-30.72 20.48-51.2 20.48s-37.888-6.144-52.224-20.48c-13.312-14.336-20.48-30.72-20.48-51.2s6.144-36.864 20.48-51.2c14.336-13.312 31.744-20.48 52.224-20.48zM1014.784 504.32c-6.144 14.336-15.36 27.648-25.6 37.888-11.264 11.264-23.552 19.456-37.888 25.6s-29.696 9.216-46.080 9.216c-28.672 0-54.272-9.216-76.8-28.672 0 0 0 0-1.024 0v-1.024l-1.024-1.024c-38.912 23.552-81.92 43.008-130.048 58.368-49.152 15.36-102.4 23.552-158.72 25.6v2.048l66.56 190.464 167.936-39.936c0-26.624 9.216-49.152 27.648-67.584s40.96-27.648 67.584-27.648c27.648 0 50.176 9.216 68.608 28.672 18.432 18.432 27.648 40.96 27.648 67.584s-9.216 50.176-27.648 68.608c-18.432 18.432-40.96 27.648-68.608 27.648-19.456 0-37.888-5.12-53.248-16.384-16.384-11.264-27.648-26.624-35.84-44.032l-197.632 48.128-82.944-234.496-1.024-2.048c-58.368-1.024-112.64-9.216-162.816-24.576-51.2-15.36-96.256-35.84-136.192-59.392-1.024 1.024-2.048 1.024-3.072 2.048-21.504 19.456-48.128 28.672-77.824 28.672-16.384 0-31.744-3.072-46.080-9.216-13.312-6.144-25.6-14.336-36.864-25.6s-19.456-23.552-25.6-37.888c-5.12-14.336-8.192-29.696-8.192-45.056 0-21.504 5.12-39.936 14.336-57.344s22.528-31.744 38.912-41.984v-1.024c0 0 0-1.024 1.024-1.024-1.024-5.12-1.024-11.264-2.048-16.384-1.024-6.144-1.024-12.288-1.024-18.432 0-41.984 11.264-81.92 34.816-119.808 24.576-37.888 57.344-69.632 99.328-98.304s91.136-50.176 146.432-66.56c55.296-16.384 115.712-24.576 179.2-24.576 62.464 0 122.88 8.192 178.176 24.576s104.448 38.912 146.432 66.56c41.984 27.648 75.776 60.416 99.328 98.304s35.84 77.824 35.84 119.808c0 12.288-1.024 23.552-3.072 35.84l-2.048 8.192c0 0 0 0 0 1.024l2.048-8.192c17.408 10.24 30.72 24.576 40.96 41.984s15.36 36.864 15.36 57.344c0 14.336-3.072 29.696-9.216 44.032zM121.856 430.592c22.528 32.768 52.224 61.44 90.112 86.016s82.944 44.032 134.144 58.368c52.224 14.336 106.496 21.504 164.864 21.504s113.664-7.168 164.864-21.504c51.2-14.336 96.256-33.792 133.12-59.392 38.912-23.552 68.608-52.224 91.136-86.016 22.528-32.768 33.792-68.608 33.792-105.472s-10.24-71.68-31.744-105.472c-22.528-32.768-53.248-61.44-91.136-86.016-38.912-24.576-83.968-44.032-135.168-58.368-52.224-14.336-106.496-21.504-164.864-21.504s-113.664 7.168-164.864 21.504c-51.2 14.336-96.256 33.792-134.144 58.368s-67.584 53.248-90.112 86.016c-22.528 32.768-33.792 68.608-33.792 105.472 0 37.888 11.264 72.704 33.792 106.496zM964.608 355.84c0 0 0 1.024 0 0s0 0 0 0zM365.568 307.712c19.456 0 36.864 6.144 51.2 20.48s21.504 30.72 21.504 51.2c0 19.456-7.168 36.864-21.504 51.2-14.336 13.312-30.72 20.48-51.2 20.48s-36.864-6.144-51.2-20.48c-13.312-14.336-20.48-30.72-20.48-51.2s6.144-36.864 20.48-51.2c14.336-13.312 31.744-20.48 51.2-20.48z" />
<glyph unicode="&#xe944;" glyph-name="reload-3" d="M492.544 745.984v156.672c0 37.888-25.6 57.344-52.224 57.344-9.216 0-23.552-3.072-38.912-15.36l-199.68-167.936c-15.36-13.312-24.576-31.744-24.576-50.176 0-19.456 9.216-37.888 24.576-50.176l200.704-167.936c15.36-12.288 29.696-15.36 38.912-15.36 25.6 0 52.224 19.456 52.224 57.344v154.624c190.464-11.264 343.040-169.984 343.040-363.52 0-200.704-163.84-364.544-364.544-364.544s-364.544 163.84-364.544 364.544c0 26.624 3.072 52.224 8.192 77.824 2.048 11.264-5.12 22.528-16.384 24.576s-22.528-5.12-24.576-16.384c-6.144-28.672-9.216-57.344-9.216-86.016 0-223.232 182.272-405.504 405.504-405.504s405.504 182.272 405.504 405.504c1.024 217.088-169.984 393.216-384 404.48zM451.584 550.4c0-10.24-4.096-16.384-10.24-16.384-2.048 0-6.144 1.024-12.288 5.12l-200.704 168.96c-6.144 5.12-9.216 12.288-9.216 18.432 0 7.168 3.072 14.336 9.216 18.432l200.704 167.936c6.144 5.12 10.24 5.12 12.288 5.12 6.144 0 10.24-6.144 10.24-16.384v-351.232z" />
<glyph unicode="&#xe945;" glyph-name="reply" d="M468.992 597.504v277.504c0 8.192-5.12 16.384-13.312 19.456s-17.408 1.024-23.552-5.12l-425.984-425.984c-8.192-8.192-8.192-21.504 0-29.696l427.008-427.008c4.096-4.096 9.216-6.144 15.36-6.144 3.072 0 5.12 1.024 8.192 2.048 8.192 3.072 13.312 11.264 13.312 19.456v276.48c92.16-5.12 452.608-35.84 513.024-239.616 3.072-10.24 13.312-16.384 23.552-15.36s18.432 10.24 18.432 21.504c-1.024 488.448-455.68 529.408-556.032 532.48zM448.512 341.504c-6.144-1.024-11.264-2.048-15.36-6.144s-6.144-9.216-6.144-15.36v-246.784l-375.808 374.784 374.784 374.784v-246.784c0-6.144 2.048-11.264 6.144-15.36s9.216-7.168 15.36-6.144h7.168c80.896 0 462.848-20.48 519.168-394.24-144.384 175.104-507.904 181.248-525.312 181.248z" />
<glyph unicode="&#xe946;" glyph-name="right" d="M780.286 448c0 5.12-2.048 10.24-6.144 14.336l-495.616 493.568c-8.192 8.192-20.478 8.192-28.67 0s-8.192-20.48 0-28.672l481.278-479.232-481.278-479.232c-8.192-8.192-8.192-20.48 0-28.672s20.478-8.192 28.67 0l495.616 493.568c4.096 4.096 6.144 9.216 6.144 14.336z" />
<glyph unicode="&#xe947;" glyph-name="right-arrow" d="M1012.734 462.336l-418.816 385.024c-8.192 8.192-20.48 8.192-27.648 0-8.192-8.192-8.192-20.48 0-28.672l380.928-350.208h-924.671c-11.264 0-20.48-8.192-20.48-20.48 0-11.264 8.192-20.48 20.48-20.48h924.671l-379.904-345.088c-7.168-7.168-8.192-18.432-2.048-26.624l1.024-1.024c4.096-4.096 9.216-6.144 14.336-6.144s10.24 2.048 13.312 5.12l418.816 379.904c3.072 3.072 5.12 8.192 6.144 12.288 1.024 8.192-4.096 14.336-6.144 16.384z" />
<glyph unicode="&#xe948;" glyph-name="right-arrow-thin" d="M611.369 58.208c-1.946-1.948-1.952-5.126-0.019-7.083 1.013-0.992 2.298-1.476 3.584-1.476 1.299 0 2.547 0.491 3.499 1.451l393.235 393.184c1.041 0.939 1.668 2.259 1.668 3.733 0 0.83-0.194 1.587-0.531 2.255l-0.028 0.053c-0.237 0.469-0.546 0.907-0.928 1.286l-393.378 393.254c-1.954 1.954-5.146 1.954-7.102 0-1.952-1.952-1.952-5.146 0-7.099l384.855-384.73h-980.535c-2.77 0-5.022-2.253-5.022-5.022 0-2.771 2.253-5.024 5.022-5.024h980.471l-384.791-384.783z" />
<glyph unicode="&#xe949;" glyph-name="right-arrow-thiner" d="M989.184 448c0 0 1.024 0 0 0 1.024 0 1.024 0 0 0 0 1.024 0 2.048 0 2.048s0 0 0 1.024c0 0 0 1.024-1.024 1.024l-376.832 406.528c-2.048 2.048-5.12 2.048-7.168 0s-2.048-5.12 0-7.168l368.64-398.336h-954.367c-3.072 0-5.12-2.048-5.12-5.12s2.048-5.12 5.12-5.12h954.367l-368.64-414.72c-2.048-2.048-2.048-5.12 0-7.168 1.024-1.024 2.048-1.024 3.072-1.024s3.072 1.024 4.096 2.048l376.832 423.936v1.024c0 0 0 0 0 1.024 1.024-1.024 1.024-1.024 1.024 0z" />
<glyph unicode="&#xe94a;" glyph-name="screen-maximise" d="M202.752 913.92v41.984h-179.2l-19.456-19.456v-180.224h41.984v129.024l296.96-297.984 29.696 29.696-297.984 296.96h128zM343.040 308.736l-296.96-297.984v128h-41.984v-180.224l19.456-19.456h180.224v43.008h-129.024l297.984 296.96-29.696 29.696zM978.944 138.752v-129.024l-299.008 300.032-29.696-29.696 297.984-296.96h-126.976v-41.984h180.224l19.456 19.456v178.176h-41.984zM679.936 586.24l297.984 299.008v-128h41.984v179.2l-19.456 19.456h-179.2v-41.984h128l-299.008-297.984 29.696-29.696z" />
<glyph unicode="&#xe94b;" glyph-name="screen-minimise" d="M330.75 658.944l-297.984 296.96-28.672-28.672 296.96-296.96h-128v-40.96h180.224l18.432 18.432v179.2h-40.96v-128zM173.054 307.712v-40.96h128l-296.96-297.984 28.672-28.672 296.96 296.96v-128h40.96v180.224l-18.432 18.432h-179.2zM850.942 266.752v40.96h-180.224l-18.432-18.432v-180.224h40.96v128l297.984-296.96 28.672 28.672-296.96 297.984h128zM850.942 588.288v40.96h-128l296.96 297.984-28.672 28.672-297.984-296.96v128h-40.96v-180.224l18.432-18.432h180.224z" />
<glyph unicode="&#xe94c;" glyph-name="search" d="M999.424-30.208l-285.696 299.008c72.704 72.704 119.808 175.104 119.808 285.696 0 222.208-184.32 405.504-405.504 405.504-226.304 0-409.6-183.296-409.6-405.504s183.296-405.504 405.504-405.504c98.304 0 187.392 33.792 260.096 94.208l285.696-299.008c8.192-8.192 12.288-8.192 17.408-8.192 4.096 0 8.192 0 12.288 4.096 8.192 8.192 8.192 21.504 0 29.696zM428.032 187.904c-200.704 0-366.592 165.888-366.592 366.592s165.888 367.616 366.592 367.616c200.704 0 366.592-166.912 366.592-367.616 0-204.8-165.888-366.592-366.592-366.592z" />
<glyph unicode="&#xe94d;" glyph-name="settings" d="M984.064 549.376h-87.040c-9.216 33.792-22.528 65.536-39.936 95.232l62.464 62.464c15.36 15.36 15.36 39.936 0 55.296l-87.040 87.040c-15.36 15.36-40.96 15.36-56.32 0l-62.464-62.464c-30.72 18.432-63.488 31.744-97.28 40.96v92.16c0 21.504-17.408 39.936-39.936 39.936h-122.88c-21.504 0-39.936-17.408-39.936-39.936v-91.136c-34.816-9.216-67.584-23.552-99.328-40.96l-65.536 65.536c-15.36 15.36-40.96 15.36-55.296 0l-87.040-88.064c-15.36-15.36-15.36-39.936 0-55.296l66.56-66.56c-17.408-29.696-29.696-61.44-38.912-94.208h-94.208c-21.504 0-39.936-17.408-39.936-39.936v-122.88c0-21.504 17.408-39.936 39.936-39.936h94.208c9.216-33.792 22.528-66.56 40.96-97.28l-65.536-65.536c-7.168-7.168-11.264-17.408-11.264-27.648s4.096-20.48 11.264-27.648l87.040-87.040c15.36-15.36 40.96-15.36 55.296 0l66.56 66.56c29.696-17.408 62.464-30.72 95.232-39.936v-91.136c0-21.504 17.408-39.936 39.936-39.936h123.904c21.504 0 39.936 17.408 39.936 39.936v91.136c32.768 9.216 64.512 21.504 94.208 38.912l62.464-62.464c15.36-15.36 40.96-15.36 55.296 0l87.040 87.040c15.36 15.36 15.36 39.936 0 55.296l-61.44 61.44c18.432 30.72 31.744 64.512 40.96 99.328h87.040c21.504 0 39.936 17.408 39.936 39.936v121.856c0 22.528-17.408 39.936-38.912 39.936zM984.064 386.56h-118.784l-3.072-15.36c-9.216-40.96-25.6-79.872-48.128-114.688l-8.192-13.312 83.968-83.968-87.040-87.040-86.016 82.944-13.312-8.192c-34.816-21.504-71.68-36.864-110.592-46.080l-15.36-3.072v-121.856h-123.904v121.856l-15.36 3.072c-39.936 9.216-77.824 24.576-112.64 46.080l-13.312 8.192-88.064-88.064-87.040 87.040 88.064 89.088-8.192 13.312c-22.528 34.816-38.912 73.728-47.104 113.664l-4.096 16.384h-125.952v122.88h125.952l3.072 15.36c8.192 38.912 23.552 76.8 46.080 110.592l8.192 13.312-88.064 88.064 87.040 87.040 88.064-88.064 13.312 8.192c35.84 22.528 73.728 38.912 114.688 48.128l15.36 3.072v124.928h123.904v-121.856l15.36-3.072c39.936-9.216 78.848-24.576 113.664-47.104l13.312-8.192 83.968 83.968 87.040-87.040-84.992-84.992 8.192-13.312c21.504-34.816 37.888-72.704 46.080-112.64l3.072-15.36h118.784l2.048-123.904zM515.072 650.752c-111.616 0-202.752-91.136-202.752-202.752s91.136-202.752 202.752-202.752c111.616 0 202.752 91.136 202.752 202.752 1.024 111.616-90.112 202.752-202.752 202.752zM515.072 284.16c-90.112 0-163.84 73.728-163.84 163.84s73.728 163.84 163.84 163.84c90.112 0 163.84-73.728 163.84-163.84s-72.704-163.84-163.84-163.84z" />
<glyph unicode="&#xe94e;" glyph-name="share" d="M690.174 235.008c-8.192-8.192-16.384-17.408-22.528-28.672l-294.912 179.2c8.192 19.456 12.288 39.936 12.288 63.488 0 21.504-4.096 43.008-12.288 63.488l293.888 177.152c32.768-50.176 86.016-79.872 145.408-79.872 95.232 0 173.056 77.824 173.056 173.056s-76.8 173.056-173.056 173.056c-96.256 0-173.056-77.824-173.056-173.056 0-20.48 4.096-41.984 11.264-60.416l-294.912-178.176c-31.744 48.128-86.016 77.824-144.384 77.824-95.232 0-173.056-77.824-173.056-173.056s77.824-173.056 173.056-173.056c57.344 0 110.592 28.672 144.384 77.824l294.912-178.176c-7.168-20.48-11.264-39.936-11.264-61.44 0-46.080 18.432-89.088 51.2-121.856s75.776-51.2 121.856-51.2c45.056 0 90.112 18.432 121.856 51.2 32.768 32.768 51.2 75.776 51.2 121.856s-18.432 89.088-51.2 121.856c-67.584 66.56-177.152 66.56-243.712-1.024zM948.222 114.176c-1.024-36.864-15.36-71.68-39.936-96.256-53.248-53.248-139.264-53.248-192.512 0-25.6 25.6-39.936 60.416-39.936 96.256s14.336 70.656 39.936 96.256c25.6 25.6 60.416 39.936 96.256 39.936 36.864 0 69.632-14.336 96.256-39.936s39.936-60.416 39.936-96.256zM675.838 781.824c0 74.752 61.44 136.192 136.192 136.192s136.192-61.44 136.192-136.192c0-74.752-61.44-136.192-136.192-136.192s-136.192 61.44-136.192 136.192zM348.158 449.024c0-74.752-61.44-136.192-136.192-136.192s-136.192 61.44-136.192 136.192c0 74.752 61.44 136.192 136.192 136.192s136.192-61.44 136.192-136.192z" />
<glyph unicode="&#xe94f;" glyph-name="share-1" d="M8.667-22.588l59.674 137.568c91.979 183.486 278.288 303.426 482.326 311.275v-233.227l459.087 374.995-459.087 373.86v-232.954c-300.22-11.3-542-260.055-542-562.929v-168.589zM52.078 173.929c14.628 273.591 242.836 492.736 519.922 492.736h21.333v185.449l348.913-284.139-348.913-285.005v186.362h-21.333c-213.327 0-411.257-114.148-519.922-295.403z" />
<glyph unicode="&#xe950;" glyph-name="share-off" d="M821.602 960c-97.225 0-175.834-78.609-175.834-175.832 0-20.137 3.915-40.242 10.769-59.368l-293.077-176.858c-32.213 47.614-86.438 76.911-144.713 76.911-79.13 0-149.028-54.091-170.228-131.81h-48.519v-49.216h42.95c2.134-95.202 79.273-171.659 174.776-171.659 58.255 0 112.499 28.286 144.727 76.898l295.132-178.899c-6.863-20.066-10.795-40.171-10.795-59.358 0-46.549 18.618-91.012 50.667-124.094l0.026-0.026c33.107-33.107 76.57-50.69 124.119-50.69 46.547 0 91.012 18.618 124.096 50.667l0.045 0.047c33.079 34.112 50.669 77.557 50.669 124.096 0 46.549-18.618 91.014-50.667 124.096l-0.023 0.023c-33.092 33.092-77.568 51.714-124.119 51.714-46.554 0-91.029-18.622-124.119-51.714-8.785-8.783-15.712-18.46-21.611-27.238l-292.988 177.813c7.548 17.692 11.428 37.982 11.682 58.323h627.305v2.129h2.129v47.087h-636.075c-1.719 6.014-3.45 12.015-5.184 17.361l293.092 176.866c32.243-49.632 87.492-78.935 145.769-78.935 97.222 0 175.831 78.609 175.831 175.833s-78.609 175.832-175.831 175.832zM686.81 783.146c0 74.436 60.354 134.791 134.793 134.791 74.436 0 134.79-60.354 134.79-134.791s-60.354-134.79-134.79-134.79c-74.438 0-134.793 60.352-134.793 134.79zM90.98 492.021c19.866 53.747 70.394 88.725 126.746 88.725 57.338 0 108.828-36.924 126.812-88.725h-253.557zM217.696 314.231c-71.644-0.996-131.547 57.141-134.685 129.596h269.458c-2.125-72.393-61.013-129.596-134.743-129.596h-0.030zM728.081 204.331c25.15 25.152 58.33 39.228 94.543 39.228 35.223 0 70.417-14.099 94.511-39.198l0.060-0.058c26.148-25.143 40.22-58.308 40.22-94.515 0-36.181-14.054-68.348-40.25-94.541-52.301-52.303-137.805-52.303-190.106 0-26.191 26.189-40.23 59.356-39.228 94.481l-2.127 0.060h2.127c0 36.183 14.054 68.35 40.25 94.543z" />
</font>
</defs>
</svg>
